  0
SECTION
  2
HEADER
  9
$ACADVER
  1
AC1018
  9
$ACADMAINTVER
 70
   104
  9
$DWGCODEPAGE
  3
ANSI_1250
  9
$LASTSAVEDBY
  1
EVA
  9
$INSBASE
 10
0.0
 20
0.0
 30
0.0
  9
$EXTMIN
 10
140.6560608584984
 20
116.2971790682982
 30
0.0
  9
$EXTMAX
 10
1037.249737625716
 20
1333.533402943233
 30
0.0
  9
$LIMMIN
 10
0.0
 20
0.0
  9
$LIMMAX
 10
271.6285070728513
 20
136.3429239280804
  9
$ORTHOMODE
 70
     1
  9
$REGENMODE
 70
     1
  9
$FILLMODE
 70
     1
  9
$QTEXTMODE
 70
     0
  9
$MIRRTEXT
 70
     0
  9
$LTSCALE
 40
15.0
  9
$ATTMODE
 70
     1
  9
$TEXTSIZE
 40
3.0
  9
$TRACEWID
 40
1.0
  9
$TEXTSTYLE
  7
Stil1
  9
$CLAYER
  8
ACHS
  9
$CELTYPE
  6
VERDECKTX2
  9
$CECOLOR
 62
   256
  9
$CELTSCALE
 40
5.0
  9
$DISPSILH
 70
     0
  9
$DIMSCALE
 40
5.0
  9
$DIMASZ
 40
3.5
  9
$DIMEXO
 40
0.0
  9
$DIMDLI
 40
3.75
  9
$DIMRND
 40
0.0
  9
$DIMDLE
 40
0.0
  9
$DIMEXE
 40
1.25
  9
$DIMTP
 40
0.0
  9
$DIMTM
 40
0.0
  9
$DIMTXT
 40
3.5
  9
$DIMCEN
 40
3.5
  9
$DIMTSZ
 40
0.0
  9
$DIMTOL
 70
     0
  9
$DIMLIM
 70
     0
  9
$DIMTIH
 70
     0
  9
$DIMTOH
 70
     0
  9
$DIMSE1
 70
     0
  9
$DIMSE2
 70
     0
  9
$DIMTAD
 70
     1
  9
$DIMZIN
 70
     8
  9
$DIMBLK
  1

  9
$DIMASO
 70
     1
  9
$DIMSHO
 70
     1
  9
$DIMPOST
  1

  9
$DIMAPOST
  1

  9
$DIMALT
 70
     0
  9
$DIMALTD
 70
     4
  9
$DIMALTF
 40
0.0394
  9
$DIMLFAC
 40
1.0
  9
$DIMTOFL
 70
     0
  9
$DIMTVP
 40
0.0
  9
$DIMTIX
 70
     0
  9
$DIMSOXD
 70
     0
  9
$DIMSAH
 70
     0
  9
$DIMBLK1
  1

  9
$DIMBLK2
  1

  9
$DIMSTYLE
  2
18
  9
$DIMCLRD
 70
     0
  9
$DIMCLRE
 70
     0
  9
$DIMCLRT
 70
     2
  9
$DIMTFAC
 40
1.0
  9
$DIMGAP
 40
0.625
  9
$DIMJUST
 70
     0
  9
$DIMSD1
 70
     0
  9
$DIMSD2
 70
     0
  9
$DIMTOLJ
 70
     1
  9
$DIMTZIN
 70
     0
  9
$DIMALTZ
 70
     0
  9
$DIMALTTZ
 70
     0
  9
$DIMUPT
 70
     0
  9
$DIMDEC
 70
     0
  9
$DIMTDEC
 70
     4
  9
$DIMALTU
 70
     8
  9
$DIMALTTD
 70
     4
  9
$DIMTXSTY
  7
ROMANS
  9
$DIMAUNIT
 70
     0
  9
$DIMADEC
 70
     0
  9
$DIMALTRND
 40
0.0
  9
$DIMAZIN
 70
     0
  9
$DIMDSEP
 70
    46
  9
$DIMATFIT
 70
     3
  9
$DIMFRAC
 70
     0
  9
$DIMLDRBLK
  1

  9
$DIMLUNIT
 70
     6
  9
$DIMLWD
 70
    -2
  9
$DIMLWE
 70
    -2
  9
$DIMTMOVE
 70
     0
  9
$LUNITS
 70
     2
  9
$LUPREC
 70
     4
  9
$SKETCHINC
 40
1.0
  9
$FILLETRAD
 40
0.0
  9
$AUNITS
 70
     0
  9
$AUPREC
 70
     0
  9
$MENU
  1
.
  9
$ELEVATION
 40
0.0
  9
$PELEVATION
 40
0.0
  9
$THICKNESS
 40
0.0
  9
$LIMCHECK
 70
     0
  9
$CHAMFERA
 40
10.0
  9
$CHAMFERB
 40
10.0
  9
$CHAMFERC
 40
20.0
  9
$CHAMFERD
 40
0.0
  9
$SKPOLY
 70
     0
  9
$TDCREATE
 40
2451600.645418067
  9
$TDUCREATE
 40
2451600.562084734
  9
$TDUPDATE
 40
2457248.521365266
  9
$TDUUPDATE
 40
2457248.438031933
  9
$TDINDWG
 40
3.8125832986
  9
$TDUSRTIMER
 40
3.8125830671
  9
$USRTIMER
 70
     1
  9
$ANGBASE
 50
0.0
  9
$ANGDIR
 70
     0
  9
$PDMODE
 70
     0
  9
$PDSIZE
 40
0.0
  9
$PLINEWID
 40
0.0
  9
$SPLFRAME
 70
     0
  9
$SPLINETYPE
 70
     6
  9
$SPLINESEGS
 70
     8
  9
$HANDSEED
  5
4FAE
  9
$SURFTAB1
 70
     6
  9
$SURFTAB2
 70
     6
  9
$SURFTYPE
 70
     6
  9
$SURFU
 70
     6
  9
$SURFV
 70
     6
  9
$UCSBASE
  2

  9
$UCSNAME
  2

  9
$UCSORG
 10
0.0
 20
0.0
 30
0.0
  9
$UCSXDIR
 10
1.0
 20
0.0
 30
0.0
  9
$UCSYDIR
 10
0.0
 20
1.0
 30
0.0
  9
$UCSORTHOREF
  2

  9
$UCSORTHOVIEW
 70
     0
  9
$UCSORGTOP
 10
0.0
 20
0.0
 30
0.0
  9
$UCSORGBOTTOM
 10
0.0
 20
0.0
 30
0.0
  9
$UCSORGLEFT
 10
0.0
 20
0.0
 30
0.0
  9
$UCSORGRIGHT
 10
0.0
 20
0.0
 30
0.0
  9
$UCSORGFRONT
 10
0.0
 20
0.0
 30
0.0
  9
$UCSORGBACK
 10
0.0
 20
0.0
 30
0.0
  9
$PUCSBASE
  2

  9
$PUCSNAME
  2

  9
$PUCSORG
 10
0.0
 20
0.0
 30
0.0
  9
$PUCSXDIR
 10
1.0
 20
0.0
 30
0.0
  9
$PUCSYDIR
 10
0.0
 20
1.0
 30
0.0
  9
$PUCSORTHOREF
  2

  9
$PUCSORTHOVIEW
 70
     0
  9
$PUCSORGTOP
 10
0.0
 20
0.0
 30
0.0
  9
$PUCSORGBOTTOM
 10
0.0
 20
0.0
 30
0.0
  9
$PUCSORGLEFT
 10
0.0
 20
0.0
 30
0.0
  9
$PUCSORGRIGHT
 10
0.0
 20
0.0
 30
0.0
  9
$PUCSORGFRONT
 10
0.0
 20
0.0
 30
0.0
  9
$PUCSORGBACK
 10
0.0
 20
0.0
 30
0.0
  9
$USERI1
 70
     0
  9
$USERI2
 70
     0
  9
$USERI3
 70
     0
  9
$USERI4
 70
     0
  9
$USERI5
 70
     0
  9
$USERR1
 40
0.0
  9
$USERR2
 40
0.0
  9
$USERR3
 40
0.0
  9
$USERR4
 40
0.0
  9
$USERR5
 40
0.0
  9
$WORLDVIEW
 70
     1
  9
$SHADEDGE
 70
     3
  9
$SHADEDIF
 70
    70
  9
$TILEMODE
 70
     0
  9
$MAXACTVP
 70
    48
  9
$PINSBASE
 10
0.0
 20
0.0
 30
0.0
  9
$PLIMCHECK
 70
     0
  9
$PEXTMIN
 10
7.378457057812568
 20
2.642657989685733
 30
0.0
  9
$PEXTMAX
 10
196.0315659403611
 20
281.2760437736162
 30
0.0
  9
$PLIMMIN
 10
-6.043083
 20
-6.762742
  9
$PLIMMAX
 10
203.930245
 20
290.205581
  9
$UNITMODE
 70
     0
  9
$VISRETAIN
 70
     1
  9
$PLINEGEN
 70
     0
  9
$PSLTSCALE
 70
     0
  9
$TREEDEPTH
 70
  3020
  9
$CMLSTYLE
  2
STANDARD
  9
$CMLJUST
 70
     0
  9
$CMLSCALE
 40
20.0
  9
$PROXYGRAPHICS
 70
     1
  9
$MEASUREMENT
 70
     1
  9
$CELWEIGHT
370
    -1
  9
$ENDCAPS
280
     0
  9
$JOINSTYLE
280
     0
  9
$LWDISPLAY
290
     0
  9
$INSUNITS
 70
     0
  9
$HYPERLINKBASE
  1

  9
$STYLESHEET
  1

  9
$XEDIT
290
     1
  9
$CEPSNTYPE
380
     0
  9
$PSTYLEMODE
290
     1
  9
$FINGERPRINTGUID
  2
{9E2E0D10-E48E-11D3-BEBA-006008753510}
  9
$VERSIONGUID
  2
{46472D67-91DD-4F91-90A6-A529FA4B9BE6}
  9
$EXTNAMES
290
     1
  9
$PSVPSCALE
 40
0.0
  9
$OLESTARTUP
290
     0
  9
$SORTENTS
280
    96
  9
$INDEXCTL
280
     0
  9
$HIDETEXT
280
     0
  9
$XCLIPFRAME
290
     0
  9
$HALOGAP
280
     0
  9
$OBSCOLOR
 70
   257
  9
$OBSLTYPE
280
     0
  9
$INTERSECTIONDISPLAY
280
     0
  9
$INTERSECTIONCOLOR
 70
   257
  9
$DIMASSOC
280
     1
  9
$PROJECTNAME
  1

  0
ENDSEC
  0
SECTION
  2
CLASSES
  0
CLASS
  1
ACDBDICTIONARYWDFLT
  2
AcDbDictionaryWithDefault
  3
ObjectDBX Classes
 90
        0
 91
        1
280
     0
281
     0
  0
CLASS
  1
RASTERVARIABLES
  2
AcDbRasterVariables
  3
ISM
 90
        0
 91
        1
280
     0
281
     0
  0
CLASS
  1
IMAGEDEF
  2
AcDbRasterImageDef
  3
ISM
 90
        0
 91
        1
280
     0
281
     0
  0
CLASS
  1
IMAGEDEF_REACTOR
  2
AcDbRasterImageDefReactor
  3
ISM
 90
        1
 91
        0
280
     0
281
     0
  0
CLASS
  1
IMAGE
  2
AcDbRasterImage
  3
ISM
 90
     2175
 91
        0
280
     0
281
     1
  0
CLASS
  1
DICTIONARYVAR
  2
AcDbDictionaryVar
  3
ObjectDBX Classes
 90
        0
 91
       13
280
     0
281
     0
  0
CLASS
  1
PLOTSETTINGS
  2
AcDbPlotSettings
  3
ObjectDBX Classes
 90
        0
 91
        1
280
     0
281
     0
  0
CLASS
  1
MATERIAL
  2
AcDbMaterial
  3
ObjectDBX Classes
 90
     1153
 91
        3
280
     0
281
     0
  0
CLASS
  1
VISUALSTYLE
  2
AcDbVisualStyle
  3
ObjectDBX Classes
 90
     4095
 91
       24
280
     0
281
     0
  0
CLASS
  1
TABLESTYLE
  2
AcDbTableStyle
  3
ObjectDBX Classes
 90
     4095
 91
        1
280
     0
281
     0
  0
CLASS
  1
SCALE
  2
AcDbScale
  3
ObjectDBX Classes
 90
     1153
 91
       17
280
     0
281
     0
  0
CLASS
  1
MLEADERSTYLE
  2
AcDbMLeaderStyle
  3
ACDB_MLEADERSTYLE_CLASS
 90
     4095
 91
        1
280
     0
281
     0
  0
CLASS
  1
ACDBSECTIONVIEWSTYLE
  2
AcDbSectionViewStyle
  3
ObjectDBX Classes
 90
     1025
 91
        1
280
     0
281
     0
  0
CLASS
  1
ACDBDETAILVIEWSTYLE
  2
AcDbDetailViewStyle
  3
ObjectDBX Classes
 90
     1025
 91
        1
280
     0
281
     0
  0
CLASS
  1
CELLSTYLEMAP
  2
AcDbCellStyleMap
  3
ObjectDBX Classes
 90
     1152
 91
        2
280
     0
281
     0
  0
ENDSEC
  0
SECTION
  2
TABLES
  0
TABLE
  2
VPORT
  5
8
330
0
100
AcDbSymbolTable
 70
     1
  0
VPORT
  5
4E2E
330
8
100
AcDbSymbolTableRecord
100
AcDbViewportTableRecord
  2
*Active
 70
     0
 10
0.0
 20
0.0
 11
1.0
 21
1.0
 12
643.7636702292027
 22
874.9796796088535
 13
0.0
 23
0.0
 14
10.0
 24
10.0
 15
10.0
 25
10.0
 16
0.0
 26
0.0
 36
1.0
 17
0.0
 27
0.0
 37
0.0
 40
1620.770209828901
 41
1.581724581724581
 42
50.0
 43
0.0
 44
0.0
 50
0.0
 51
0.0
 71
     0
 72
 20000
 73
     1
 74
     0
 75
     0
 76
     0
 77
     0
 78
     0
281
     0
 65
     1
110
0.0
120
0.0
130
0.0
111
1.0
121
0.0
131
0.0
112
0.0
122
1.0
132
0.0
 79
     0
146
0.0
1001
ACAD_NAV_VCDISPLAY
1070
     3
  0
ENDTAB
  0
TABLE
  2
LTYPE
  5
5
330
0
100
AcDbSymbolTable
 70
     6
  0
LTYPE
  5
12
330
5
100
AcDbSymbolTableRecord
100
AcDbLinetypeTableRecord
  2
BYBLOCK
 70
     0
  3

 72
    65
 73
     0
 40
0.0
  0
LTYPE
  5
13
330
5
100
AcDbSymbolTableRecord
100
AcDbLinetypeTableRecord
  2
BYLAYER
 70
     0
  3

 72
    65
 73
     0
 40
0.0
  0
LTYPE
  5
14
330
5
100
AcDbSymbolTableRecord
100
AcDbLinetypeTableRecord
  2
CONTINUOUS
 70
     0
  3
Solid line
 72
    65
 73
     0
 40
0.0
  0
LTYPE
  5
113E
330
5
100
AcDbSymbolTableRecord
100
AcDbLinetypeTableRecord
  2
VERDECKTX2
 70
     0
  3
Verdeckt (2x) ____ ____ ____ ____ ____ ____ ___
 72
    65
 73
     2
 40
19.05
 49
12.7
 74
     0
 49
-6.349999999999999
 74
     0
  0
LTYPE
  5
1205
330
5
100
AcDbSymbolTableRecord
100
AcDbLinetypeTableRecord
  2
GESTRICHELT
 70
     0
  3
__ __ __ __ __ __ __ __ __ __ __ __ __ __ __
 72
    65
 73
     2
 40
0.75
 49
0.5
 74
     0
 49
-0.25
 74
     0
  0
LTYPE
  5
1206
330
5
100
AcDbSymbolTableRecord
100
AcDbLinetypeTableRecord
  2
STRICHPUNKT
 70
     0
  3
__ . __ . __ . __ . __ . __ . __ . __ . __ . __
 72
    65
 73
     4
 40
1.0
 49
0.5
 74
     0
 49
-0.25
 74
     0
 49
0.0
 74
     0
 49
-0.25
 74
     0
  0
LTYPE
  5
1207
330
5
100
AcDbSymbolTableRecord
100
AcDbLinetypeTableRecord
  2
VERDECKT
 70
     0
  3
_ _ _ _ _ _ _ _ _ _ _ _ _ _ _ _ _ _ _ _ _ _ _
 72
    65
 73
     2
 40
0.375
 49
0.25
 74
     0
 49
-0.125
 74
     0
  0
LTYPE
  5
1208
330
5
100
AcDbSymbolTableRecord
100
AcDbLinetypeTableRecord
  2
AUSGEZOGEN
 70
     0
  3
Ausgezogene Linie
 72
    65
 73
     0
 40
0.0
  0
ENDTAB
  0
TABLE
  2
LAYER
  5
2
102
{ACAD_XDICTIONARY
360
4EA3
102
}
330
0
100
AcDbSymbolTable
 70
    11
  0
LAYER
  5
E
102
{ACAD_XDICTIONARY
360
4E82
102
}
330
2
100
AcDbSymbolTableRecord
100
AcDbLayerTableRecord
  2
0
 70
     0
 62
     7
  6
CONTINUOUS
370
    -3
390
5E8
  0
LAYER
  5
28
330
2
100
AcDbSymbolTableRecord
100
AcDbLayerTableRecord
  2
DEFPOINTS
 70
     0
 62
     7
  6
CONTINUOUS
290
     0
370
    -3
390
5E8
  0
LAYER
  5
B7
102
{ACAD_XDICTIONARY
360
4E84
102
}
330
2
100
AcDbSymbolTableRecord
100
AcDbLayerTableRecord
  2
V5
 70
     0
 62
     7
  6
CONTINUOUS
370
    -3
390
5E8
  0
LAYER
  5
8F4
102
{ACAD_XDICTIONARY
360
4E86
102
}
330
2
100
AcDbSymbolTableRecord
100
AcDbLayerTableRecord
  2
Mansfen
 70
     0
 62
     4
  6
CONTINUOUS
290
     0
370
    -3
390
5E8
  0
LAYER
  5
120A
102
{ACAD_XDICTIONARY
360
4E88
102
}
330
2
100
AcDbSymbolTableRecord
100
AcDbLayerTableRecord
  2
V35
 70
     0
 62
     3
  6
CONTINUOUS
370
    -3
390
5E8
  0
LAYER
  5
120B
102
{ACAD_XDICTIONARY
360
4E8A
102
}
330
2
100
AcDbSymbolTableRecord
100
AcDbLayerTableRecord
  2
V25
 70
     0
 62
     4
  6
CONTINUOUS
370
    -3
390
5E8
  0
LAYER
  5
120C
102
{ACAD_XDICTIONARY
360
4E8C
102
}
330
2
100
AcDbSymbolTableRecord
100
AcDbLayerTableRecord
  2
SV35
 70
     0
 62
     6
  6
VERDECKT
370
    -3
390
5E8
  0
LAYER
  5
120D
102
{ACAD_XDICTIONARY
360
4E8E
102
}
330
2
100
AcDbSymbolTableRecord
100
AcDbLayerTableRecord
  2
ACHS
 70
     0
 62
     4
  6
STRICHPUNKT
370
    -3
390
5E8
  0
LAYER
  5
120E
102
{ACAD_XDICTIONARY
360
4E90
102
}
330
2
100
AcDbSymbolTableRecord
100
AcDbLayerTableRecord
  2
TXT-D
 70
     0
 62
     1
  6
CONTINUOUS
370
    -3
390
5E8
  0
LAYER
  5
19FD
102
{ACAD_XDICTIONARY
360
4E92
102
}
330
2
100
AcDbSymbolTableRecord
100
AcDbLayerTableRecord
  2
ISOTRI46
 70
     0
 62
     4
  6
AUSGEZOGEN
370
    -3
390
5E8
  0
LAYER
  5
30EC
102
{ACAD_XDICTIONARY
360
4E94
102
}
330
2
100
AcDbSymbolTableRecord
100
AcDbLayerTableRecord
  2
INSULATION
 70
     0
 62
     4
  6
CONTINUOUS
370
    -3
390
5E8
  0
ENDTAB
  0
TABLE
  2
STYLE
  5
3
330
0
100
AcDbSymbolTable
 70
     3
  0
STYLE
  5
F
330
3
100
AcDbSymbolTableRecord
100
AcDbTextStyleTableRecord
  2
STANDARD
 70
     0
 40
0.0
 41
1.0
 50
0.0
 71
     0
 42
2.5
  3
txt
  4

  0
STYLE
  5
BF
330
3
100
AcDbSymbolTableRecord
100
AcDbTextStyleTableRecord
  2
ROMANS
 70
     0
 40
14.0
 41
1.0
 50
0.0
 71
     0
 42
2.5
  3
arial.ttf
  4

1001
ACAD
1000
Arial
1071
       34
  0
STYLE
  5
91F
330
3
100
AcDbSymbolTableRecord
100
AcDbTextStyleTableRecord
  2
Stil1
 70
     0
 40
3.0
 41
1.0
 50
0.0
 71
     0
 42
3.0
  3
arial.ttf
  4

1001
ACAD
1000
Arial
1071
       34
  0
ENDTAB
  0
TABLE
  2
VIEW
  5
6
330
0
100
AcDbSymbolTable
 70
     0
  0
ENDTAB
  0
TABLE
  2
UCS
  5
7
330
0
100
AcDbSymbolTable
 70
     0
  0
ENDTAB
  0
TABLE
  2
APPID
  5
9
330
0
100
AcDbSymbolTable
 70
     6
  0
APPID
  5
10
330
9
100
AcDbSymbolTableRecord
100
AcDbRegAppTableRecord
  2
ACAD
 70
     0
  0
APPID
  5
212A
330
9
100
AcDbSymbolTableRecord
100
AcDbRegAppTableRecord
  2
CONTENTBLOCKICON
 70
     0
  0
APPID
  5
30F6
330
9
100
AcDbSymbolTableRecord
100
AcDbRegAppTableRecord
  2
DCO15
 70
     0
  0
APPID
  5
4EA8
330
9
100
AcDbSymbolTableRecord
100
AcDbRegAppTableRecord
  2
ACAD_EXEMPT_FROM_CAD_STANDARDS
 70
     0
  0
APPID
  5
4EC5
330
9
100
AcDbSymbolTableRecord
100
AcDbRegAppTableRecord
  2
ACAD_NAV_VCDISPLAY
 70
     0
  0
APPID
  5
4FA9
330
9
100
AcDbSymbolTableRecord
100
AcDbRegAppTableRecord
  2
ACAD_MLEADERVER
 70
     0
  0
ENDTAB
  0
TABLE
  2
DIMSTYLE
  5
A
330
0
100
AcDbSymbolTable
 70
     2
100
AcDbDimStyleTable
 71
     0
  0
DIMSTYLE
105
280
102
{ACAD_REACTORS
330
208B
102
}
330
A
100
AcDbSymbolTableRecord
100
AcDbDimStyleTableRecord
  2
18
 70
     0
 40
5.0
 41
3.5
 42
0.0
 43
3.75
 44
1.25
 73
     0
 74
     0
 77
     1
 78
     8
140
3.5
141
3.5
143
0.0394
147
0.625
171
     4
178
     2
271
     0
273
     8
274
     4
277
     6
340
BF
  0
DIMSTYLE
105
4A9D
330
A
100
AcDbSymbolTableRecord
100
AcDbDimStyleTableRecord
  2
STANDARD
 70
     0
340
F
  0
ENDTAB
  0
TABLE
  2
BLOCK_RECORD
  5
1
330
0
100
AcDbSymbolTable
 70
     7
  0
BLOCK_RECORD
  5
18
102
{ACAD_XDICTIONARY
360
81C
102
}
330
1
100
AcDbSymbolTableRecord
100
AcDbBlockTableRecord
  2
*MODEL_SPACE
340
5EB
  0
BLOCK_RECORD
  5
2451
330
1
100
AcDbSymbolTableRecord
100
AcDbBlockTableRecord
  2
*Paper_Space
340
2450
  0
BLOCK_RECORD
  5
1697
330
1
100
AcDbSymbolTableRecord
100
AcDbBlockTableRecord
  2
HALFEN
340
0
102
{BLKREFS
331
1D60
102
}
  0
BLOCK_RECORD
  5
1858
330
1
100
AcDbSymbolTableRecord
100
AcDbBlockTableRecord
  2
HOLZ
340
0
102
{BLKREFS
331
1EAC
102
}
  0
BLOCK_RECORD
  5
1890
330
1
100
AcDbSymbolTableRecord
100
AcDbBlockTableRecord
  2
OKAPPE
340
0
102
{BLKREFS
331
1EC2
102
}
  0
BLOCK_RECORD
  5
18A0
330
1
100
AcDbSymbolTableRecord
100
AcDbBlockTableRecord
  2
*X3
340
0
102
{BLKREFS
331
1EFF
102
}
  0
BLOCK_RECORD
  5
20A6
330
1
100
AcDbSymbolTableRecord
100
AcDbBlockTableRecord
  2
*D4
340
0
  0
BLOCK_RECORD
  5
2FE7
330
1
100
AcDbSymbolTableRecord
100
AcDbBlockTableRecord
  2
DAEMM
340
0
102
{BLKREFS
331
457D
331
457E
331
457F
331
4580
102
}
  0
BLOCK_RECORD
  5
3974
330
1
100
AcDbSymbolTableRecord
100
AcDbBlockTableRecord
  2
e140
340
0
102
{BLKREFS
331
4525
331
4528
331
4596
102
}
  0
ENDTAB
  0
ENDSEC
  0
SECTION
  2
BLOCKS
  0
BLOCK
  5
19
330
18
100
AcDbEntity
  8
0
100
AcDbBlockBegin
  2
*MODEL_SPACE
 70
     0
 10
0.0
 20
0.0
 30
0.0
  3
*MODEL_SPACE
  1

  0
ENDBLK
  5
1A
330
18
100
AcDbEntity
  8
0
100
AcDbBlockEnd
  0
BLOCK
  5
246F
330
2451
100
AcDbEntity
 67
     1
  8
0
 48
5.0
100
AcDbBlockBegin
  2
*Paper_Space
 70
     0
 10
0.0
 20
0.0
 30
0.0
  3
*Paper_Space
  1

  0
ENDBLK
  5
2470
330
2451
100
AcDbEntity
 67
     1
  8
0
 48
5.0
100
AcDbBlockEnd
  0
BLOCK
  5
169E
330
1697
100
AcDbEntity
  8
0
100
AcDbBlockBegin
  2
HALFEN
 70
     0
 10
0.0
 20
0.0
 30
0.0
  3
HALFEN
  1

  0
LINE
  5
1698
330
1697
100
AcDbEntity
  8
0
100
AcDbLine
 10
2.159883279355028
 20
-72.16333143498059
 30
0.0
 11
2.159883279355028
 21
-50.12489367374223
 31
0.0
  0
ARC
  5
1699
330
1697
100
AcDbEntity
  8
0
100
AcDbCircle
 10
28.15988327935503
 20
-50.12489367374223
 30
0.0
 40
26.0
100
AcDbArc
 50
90.0
 51
180.0
  0
LINE
  5
169A
330
1697
100
AcDbEntity
  8
0
100
AcDbLine
 10
-1.834867376810564
 20
-72.16333143498059
 30
0.0
 11
-1.834867376810564
 21
-50.12489367374223
 31
0.0
  0
ARC
  5
169B
330
1697
100
AcDbEntity
  8
0
100
AcDbCircle
 10
-27.83486737681057
 20
-50.12489367374223
 30
0.0
 40
26.0
100
AcDbArc
 50
0.0
 51
90.0
  0
ARC
  5
169C
330
1697
100
AcDbEntity
  8
0
100
AcDbCircle
 10
0.1625079512722323
 20
-80.42532222406203
 30
0.0
 40
8.5
100
AcDbArc
 50
103.5907581896157
 51
76.40924181038427
  0
LWPOLYLINE
  5
169D
330
1697
100
AcDbEntity
  8
0
100
AcDbPolyline
 90
       12
 70
     1
 43
0.0
 10
-27.83486737681057
 20
-24.12489367374224
 10
-27.83486737681057
 20
-6.124893673742235
 42
-0.4142135623731007
 10
-24.83749204872777
 20
-3.127518345659382
 10
25.16250795127223
 20
-3.127518345659382
 42
-0.4142135623731007
 10
28.15988327935503
 20
-6.124893673742235
 10
28.15988327935503
 20
-24.12489367374224
 10
31.16513262318944
 20
-24.12489367374224
 10
31.16513262318944
 20
-6.124893673742235
 42
0.4142135623730924
 10
25.16250795127223
 20
-0.1222690018250887
 10
-24.83749204872777
 20
-0.1222690018250887
 42
0.4142135623730924
 10
-30.84011672064497
 20
-6.124893673742235
 10
-30.84011672064497
 20
-24.12489367374224
  0
ENDBLK
  5
169F
330
1697
100
AcDbEntity
  8
0
100
AcDbBlockEnd
  0
BLOCK
  5
188E
330
1858
100
AcDbEntity
  8
0
100
AcDbBlockBegin
  2
HOLZ
 70
     0
 10
0.0
 20
0.0
 30
0.0
  3
HOLZ
  1

  0
LINE
  5
1859
330
1858
100
AcDbEntity
  8
V25
100
AcDbLine
 10
134.2753376758139
 20
0.0669714036830556
 30
0.0
 11
150.0
 21
8.817610495073722
 31
0.0
  0
LINE
  5
185A
330
1858
100
AcDbEntity
  8
V25
100
AcDbLine
 10
136.7919707710957
 20
36.16753295237527
 30
0.0
 11
142.9699331868824
 21
40.0
 31
0.0
  0
LINE
  5
185B
330
1858
100
AcDbEntity
  8
V25
100
AcDbLine
 10
128.5743933171145
 20
30.62150073721341
 30
0.0
 11
136.7919707710957
 21
36.16753295237527
 31
0.0
  0
LINE
  5
185C
330
1858
100
AcDbEntity
  8
V25
100
AcDbLine
 10
119.2268989632111
 20
24.51059487050725
 30
0.0
 11
128.5743933171145
 21
30.62150073721341
 31
0.0
  0
LINE
  5
185D
330
1858
100
AcDbEntity
  8
V25
100
AcDbLine
 10
110.0334841865699
 20
18.60509760436275
 30
0.0
 11
119.2268989632111
 21
24.51059487050725
 31
0.0
  0
LINE
  5
185E
330
1858
100
AcDbEntity
  8
V25
100
AcDbLine
 10
100.3264708190547
 20
11.72390948555085
 30
0.0
 11
110.0334841865699
 21
18.60509760436275
 31
0.0
  0
LINE
  5
185F
330
1858
100
AcDbEntity
  8
V25
100
AcDbLine
 10
92.10889336507376
 20
6.383285870950658
 30
0.0
 11
100.3264708190547
 21
11.72390948555085
 31
0.0
  0
LINE
  5
1860
330
1858
100
AcDbEntity
  8
V25
100
AcDbLine
 10
82.76139901117039
 20
0.2723800042444964
 30
0.0
 11
92.10889336507376
 21
6.383285870950658
 31
0.0
  0
LINE
  5
1861
330
1858
100
AcDbEntity
  8
V25
100
AcDbLine
 10
73.56798423452892
 20
38.27297110813106
 30
0.0
 11
75.72176328847627
 21
40.0
 31
0.0
  0
LINE
  5
1862
330
1858
100
AcDbEntity
  8
V25
100
AcDbLine
 10
66.32624410320818
 20
33.08640394395184
 30
0.0
 11
73.56798423452892
 21
38.27297110813106
 31
0.0
  0
LINE
  5
1863
330
1858
100
AcDbEntity
  8
V25
100
AcDbLine
 10
60.62529974450876
 20
28.51606258145739
 30
0.0
 11
66.32624410320818
 21
33.08640394395184
 31
0.0
  0
LINE
  5
1864
330
1858
100
AcDbEntity
  8
V25
100
AcDbLine
 10
55.07843496307168
 20
23.7403126184015
 30
0.0
 11
60.62529974450876
 21
28.51606258145739
 31
0.0
  0
LINE
  5
1865
330
1858
100
AcDbEntity
  8
V25
100
AcDbLine
 10
50.71284694064434
 20
19.73484490745136
 30
0.0
 11
55.07843496307168
 21
23.7403126184015
 31
0.0
  0
LINE
  5
1866
330
1858
100
AcDbEntity
  8
V25
100
AcDbLine
 10
44.75510328650807
 20
15.16450354495691
 30
0.0
 11
50.71284694064434
 21
19.73484490745136
 31
0.0
  0
LINE
  5
1867
330
1858
100
AcDbEntity
  8
V25
100
AcDbLine
 10
36.17800681891527
 20
9.053597678250753
 30
0.0
 11
44.75510328650807
 21
15.16450354495691
 31
0.0
  0
LINE
  5
1868
330
1858
100
AcDbEntity
  8
V25
100
AcDbLine
 10
32.17193781009951
 20
38.83784475967536
 30
0.0
 11
33.35087222234552
 21
40.0
 31
0.0
  0
LINE
  5
1869
330
1858
100
AcDbEntity
  8
V25
100
AcDbLine
 10
27.80634978767216
 20
35.3972507002693
 30
0.0
 11
32.17193781009951
 21
38.83784475967536
 31
0.0
  0
LINE
  5
186A
330
1858
100
AcDbEntity
  8
V25
100
AcDbLine
 10
23.38940190615722
 20
31.75124804030179
 30
0.0
 11
27.80634978767216
 21
35.3972507002693
 31
0.0
  0
LINE
  5
186B
330
1858
100
AcDbEntity
  8
V25
100
AcDbLine
 10
18.61293501103068
 20
26.82144162682471
 30
0.0
 11
23.38940190615722
 21
31.75124804030179
 31
0.0
  0
LINE
  5
186C
330
1858
100
AcDbEntity
  8
V25
100
AcDbLine
 10
15.01774487491411
 20
23.1754389668572
 30
0.0
 11
18.61293501103068
 21
26.82144162682471
 31
0.0
  0
LINE
  5
186D
330
1858
100
AcDbEntity
  8
V25
100
AcDbLine
 10
10.39535755704969
 20
19.52943630688969
 30
0.0
 11
15.01774487491411
 21
23.1754389668572
 31
0.0
  0
LINE
  5
186E
330
1858
100
AcDbEntity
  8
V25
100
AcDbLine
 10
4.899852634699982
 20
14.39422129285094
 30
0.0
 11
10.39535755704969
 21
19.52943630688969
 31
0.0
  0
LINE
  5
186F
330
1858
100
AcDbEntity
  8
V25
100
AcDbLine
 10
0.1233857395734503
 20
9.259006278812194
 30
0.0
 11
4.899852634699982
 21
14.39422129285094
 31
0.0
  0
LINE
  5
1870
330
1858
100
AcDbEntity
  8
V25
100
AcDbLine
 10
146.4989841386107
 20
30.82690933777485
 30
0.0
 11
150.0
 21
28.60784847799914
 31
0.0
  0
LINE
  5
1871
330
1858
100
AcDbEntity
  8
V25
100
AcDbLine
 10
140.2330813299502
 20
34.26750339718092
 30
0.0
 11
146.4989841386107
 21
30.82690933777485
 31
0.0
  0
LINE
  5
1872
330
1858
100
AcDbEntity
  8
V25
100
AcDbLine
 10
133.5049397895031
 20
37.50268885602532
 30
0.0
 11
140.2330813299502
 21
34.26750339718092
 31
0.0
  0
LINE
  5
1873
330
1858
100
AcDbEntity
  8
V25
100
AcDbLine
 10
129.0158554230347
 20
40.0
 30
0.0
 11
133.5049397895031
 21
37.50268885602532
 31
0.0
  0
LINE
  5
1874
330
1858
100
AcDbEntity
  8
V25
100
AcDbLine
 10
146.9098630113099
 20
1.248070856911908
 30
0.0
 11
148.5950116034373
 21
0.0
 31
0.0
  0
LINE
  5
1875
330
1858
100
AcDbEntity
  8
V25
100
AcDbLine
 10
142.1333961161833
 20
4.277847715194639
 30
0.0
 11
146.9098630113099
 21
1.248070856911908
 31
0.0
  0
LINE
  5
1876
330
1858
100
AcDbEntity
  8
V25
100
AcDbLine
 10
136.586531334746
 20
7.513033174039037
 30
0.0
 11
142.1333961161833
 21
4.277847715194639
 31
0.0
  0
LINE
  5
1877
330
1858
100
AcDbEntity
  8
V25
100
AcDbLine
 10
131.0396665533089
 20
11.51850088498941
 30
0.0
 11
136.586531334746
 21
7.513033174039037
 31
0.0
  0
LINE
  5
1878
330
1858
100
AcDbEntity
  8
V25
100
AcDbLine
 10
123.7979264219882
 20
16.1401943976241
 30
0.0
 11
131.0396665533089
 21
11.51850088498941
 31
0.0
  0
LINE
  5
1879
330
1858
100
AcDbEntity
  8
V25
100
AcDbLine
 10
115.9912278407062
 20
20.86459221053974
 30
0.0
 11
123.7979264219882
 21
16.1401943976241
 31
0.0
  0
LINE
  5
187A
330
1858
100
AcDbEntity
  8
V25
100
AcDbLine
 10
107.0032525004144
 20
25.64034217359586
 30
0.0
 11
115.9912278407062
 21
20.86459221053974
 31
0.0
  0
LINE
  5
187B
330
1858
100
AcDbEntity
  8
V25
100
AcDbLine
 10
98.42615603282162
 20
30.98096578819605
 30
0.0
 11
107.0032525004144
 21
25.64034217359586
 31
0.0
  0
LINE
  5
187C
330
1858
100
AcDbEntity
  8
V25
100
AcDbLine
 10
88.30826379260747
 20
36.16753295237527
 30
0.0
 11
98.42615603282162
 21
30.98096578819605
 31
0.0
  0
LINE
  5
187D
330
1858
100
AcDbEntity
  8
V25
100
AcDbLine
 10
79.506462783904
 20
40.0
 30
0.0
 11
88.30826379260747
 21
36.16753295237527
 31
0.0
  0
LINE
  5
187E
330
1858
100
AcDbEntity
  8
V25
100
AcDbLine
 10
83.53179689748094
 20
3.712974063650563
 30
0.0
 11
87.84428503596677
 21
0.0
 31
0.0
  0
LINE
  5
187F
330
1858
100
AcDbEntity
  8
V25
100
AcDbLine
 10
77.00909479338361
 20
8.488724026706449
 30
0.0
 11
83.53179689748094
 21
3.712974063650563
 31
0.0
  0
LINE
  5
1880
330
1858
100
AcDbEntity
  8
V25
100
AcDbLine
 10
69.97279409841235
 20
13.6239390407452
 30
0.0
 11
77.00909479338361
 21
8.488724026706449
 31
0.0
  0
LINE
  5
1881
330
1858
100
AcDbEntity
  8
V25
100
AcDbLine
 10
62.5256145307419
 20
18.81050620492442
 30
0.0
 11
69.97279409841235
 21
13.6239390407452
 31
0.0
  0
LINE
  5
1882
330
1858
100
AcDbEntity
  8
V25
100
AcDbLine
 10
54.51347651311039
 20
23.7403126184015
 30
0.0
 11
62.5256145307419
 21
18.81050620492442
 31
0.0
  0
LINE
  5
1883
330
1858
100
AcDbEntity
  8
V25
100
AcDbLine
 10
47.27173638178965
 20
28.51606258145739
 30
0.0
 11
54.51347651311039
 21
23.7403126184015
 31
0.0
  0
LINE
  5
1884
330
1858
100
AcDbEntity
  8
V25
100
AcDbLine
 10
39.82455681411943
 20
33.08640394395184
 30
0.0
 11
47.27173638178965
 21
28.51606258145739
 31
0.0
  0
LINE
  5
1885
330
1858
100
AcDbEntity
  8
V25
100
AcDbLine
 10
33.30185471002187
 20
37.09187165490221
 30
0.0
 11
39.82455681411943
 21
33.08640394395184
 31
0.0
  0
LINE
  5
1886
330
1858
100
AcDbEntity
  8
V25
100
AcDbLine
 10
26.28436476557522
 20
40.0
 30
0.0
 11
33.30185471002187
 21
37.09187165490221
 31
0.0
  0
LINE
  5
1887
330
1858
100
AcDbEntity
  8
V25
100
AcDbLine
 10
31.81241879648792
 20
0.6318450552273589
 30
0.0
 11
32.62897036215486
 21
0.0
 31
0.0
  0
LINE
  5
1888
330
1858
100
AcDbEntity
  8
V25
100
AcDbLine
 10
24.15979979246799
 20
4.842721366738942
 30
0.0
 11
31.81241879648792
 21
0.6318450552273589
 31
0.0
  0
LINE
  5
1889
330
1858
100
AcDbEntity
  8
V25
100
AcDbLine
 10
18.2534159974191
 20
8.283315426145009
 30
0.0
 11
24.15979979246799
 21
4.842721366738942
 31
0.0
  0
LINE
  5
188A
330
1858
100
AcDbEntity
  8
V25
100
AcDbLine
 10
10.96031600701099
 20
11.36444443456821
 30
0.0
 11
18.2534159974191
 21
8.283315426145009
 31
0.0
  0
LINE
  5
188B
330
1858
100
AcDbEntity
  8
V25
100
AcDbLine
 10
5.259371648311571
 20
14.1888126922895
 30
0.0
 11
10.96031600701099
 21
11.36444443456821
 31
0.0
  0
LINE
  5
188C
330
1858
100
AcDbEntity
  8
V25
100
AcDbLine
 10
0.0
 20
16.24651878378267
 30
0.0
 11
5.259371648311571
 21
14.1888126922895
 31
0.0
  0
LWPOLYLINE
  5
188D
330
1858
100
AcDbEntity
  8
V5
100
AcDbPolyline
 90
        4
 70
     1
 43
0.0
 10
0.0
 20
40.0
 10
150.0
 20
40.0
 10
150.0
 20
0.0
 10
0.0
 20
0.0
  0
ENDBLK
  5
188F
330
1858
100
AcDbEntity
  8
0
100
AcDbBlockEnd
  0
BLOCK
  5
189E
330
1890
100
AcDbEntity
  8
0
100
AcDbBlockBegin
  2
OKAPPE
 70
     0
 10
0.0
 20
0.0
 30
0.0
  3
OKAPPE
  1

  0
LINE
  5
1891
330
1890
100
AcDbEntity
  8
ACHS
100
AcDbLine
 10
-0.0523408411157789
 20
0.1898566739969283
 30
0.0
 11
5.447659158884221
 21
0.1898566739969283
 31
0.0
  0
LINE
  5
1892
330
1890
100
AcDbEntity
  8
ACHS
100
AcDbLine
 10
-0.0523408411157789
 20
0.1898566739969283
 30
0.0
 11
-15.94039117203374
 21
0.1898566739969283
 31
0.0
  0
LINE
  5
1893
330
1890
100
AcDbEntity
  8
V5
  6
Continuous
100
AcDbLine
 10
-17.55234084111578
 20
75.18985667399693
 30
0.0
 11
10.94765915888422
 21
75.18985667399693
 31
0.0
  0
LINE
  5
1894
330
1890
100
AcDbEntity
  8
V5
  6
Continuous
100
AcDbLine
 10
10.94765915888422
 20
75.18985667399693
 30
0.0
 11
10.94765915888422
 21
40.18985667399692
 31
0.0
  0
LINE
  5
1895
330
1890
100
AcDbEntity
  8
V5
  6
Continuous
100
AcDbLine
 10
-17.55234084111578
 20
75.18985667399693
 30
0.0
 11
-17.55234084111578
 21
70.68985667399693
 31
0.0
  0
LINE
  5
1896
330
1890
100
AcDbEntity
  8
V5
  6
Continuous
100
AcDbLine
 10
-17.55234084111578
 20
70.68985667399693
 30
0.0
 11
6.447659158884221
 21
70.68985667399693
 31
0.0
  0
LINE
  5
1897
330
1890
100
AcDbEntity
  8
V5
  6
Continuous
100
AcDbLine
 10
6.447659158884221
 20
70.68985667399693
 30
0.0
 11
6.447659158884221
 21
40.18985667399692
 31
0.0
  0
LINE
  5
1898
330
1890
100
AcDbEntity
  8
V5
  6
Continuous
100
AcDbLine
 10
-0.0523408411157789
 20
12.18985667399693
 30
0.0
 11
10.94765915888422
 21
40.18985667399692
 31
0.0
  0
LINE
  5
1899
330
1890
100
AcDbEntity
  8
V5
  6
Continuous
100
AcDbLine
 10
-0.0523408411157789
 20
-8.810143326003071
 30
0.0
 11
-3.052340841115778
 21
-5.810143326003071
 31
0.0
  0
LINE
  5
189A
330
1890
100
AcDbEntity
  8
V5
  6
Continuous
100
AcDbLine
 10
-3.952340841115869
 20
9.489856673996996
 30
0.0
 11
-3.052340841115778
 21
-5.810143326003071
 31
0.0
  0
LINE
  5
189B
330
1890
100
AcDbEntity
  8
V5
  6
Continuous
100
AcDbLine
 10
-3.952340841115869
 20
9.489856673996996
 30
0.0
 11
6.447659158884221
 21
40.18985667399692
 31
0.0
  0
LINE
  5
189C
330
1890
100
AcDbEntity
  8
V5
  6
Continuous
100
AcDbLine
 10
-0.0523408411157789
 20
-8.810143326003071
 30
0.0
 11
-0.0523408411157789
 21
12.18985667399693
 31
0.0
  0
LWPOLYLINE
  5
189D
330
1890
100
AcDbEntity
  8
V5
  6
Continuous
100
AcDbPolyline
 90
       11
 70
     0
 43
0.0
 10
-17.55234084111578
 20
75.18985667399693
 10
10.94765915888422
 20
75.18985667399693
 10
10.94765915888422
 20
40.18985667399692
 10
-0.0523408411157789
 20
12.18985667399693
 10
-0.0523408411157789
 20
-8.810143326003071
 10
-3.052340841115778
 20
-5.810143326002958
 10
-3.952340841115869
 20
9.489856673996882
 10
6.447659158884221
 20
40.18985667399704
 10
6.447659158884221
 20
70.68985667399693
 10
-17.55234084111578
 20
70.68985667399693
 10
-17.55234084111578
 20
75.18985667399693
  0
ENDBLK
  5
189F
330
1890
100
AcDbEntity
  8
0
100
AcDbBlockEnd
  0
BLOCK
  5
196C
330
18A0
100
AcDbEntity
  8
0
100
AcDbBlockBegin
  2
*X3
 70
     1
 10
0.0
 20
0.0
 30
0.0
  3
*X3
  1

  0
LINE
  5
18A1
330
18A0
100
AcDbEntity
  8
0
 62
     0
380
     1
100
AcDbLine
 10
367.5
 20
440.0
 30
0.0
 11
367.5
 21
440.0
 31
0.0
  0
LINE
  5
18A2
330
18A0
100
AcDbEntity
  8
0
 62
     0
380
     1
100
AcDbLine
 10
370.0
 20
440.0
 30
0.0
 11
370.0
 21
440.0
 31
0.0
  0
LINE
  5
18A3
330
18A0
100
AcDbEntity
  8
0
 62
     0
380
     1
100
AcDbLine
 10
372.5
 20
440.0
 30
0.0
 11
372.5
 21
440.0
 31
0.0
  0
LINE
  5
18A4
330
18A0
100
AcDbEntity
  8
0
 62
     0
380
     1
100
AcDbLine
 10
375.0
 20
440.0
 30
0.0
 11
375.0
 21
440.0
 31
0.0
  0
LINE
  5
18A5
330
18A0
100
AcDbEntity
  8
0
 62
     0
380
     1
100
AcDbLine
 10
377.5
 20
440.0
 30
0.0
 11
377.5
 21
440.0
 31
0.0
  0
LINE
  5
18A6
330
18A0
100
AcDbEntity
  8
0
 62
     0
380
     1
100
AcDbLine
 10
380.0
 20
440.0
 30
0.0
 11
380.0
 21
440.0
 31
0.0
  0
LINE
  5
18A7
330
18A0
100
AcDbEntity
  8
0
 62
     0
380
     1
100
AcDbLine
 10
382.5
 20
440.0
 30
0.0
 11
382.5
 21
440.0
 31
0.0
  0
LINE
  5
18A8
330
18A0
100
AcDbEntity
  8
0
 62
     0
380
     1
100
AcDbLine
 10
385.0
 20
440.0
 30
0.0
 11
385.0
 21
440.0
 31
0.0
  0
LINE
  5
18A9
330
18A0
100
AcDbEntity
  8
0
 62
     0
380
     1
100
AcDbLine
 10
387.5
 20
440.0
 30
0.0
 11
387.5
 21
440.0
 31
0.0
  0
LINE
  5
18AA
330
18A0
100
AcDbEntity
  8
0
 62
     0
380
     1
100
AcDbLine
 10
390.0
 20
440.0
 30
0.0
 11
390.0
 21
440.0
 31
0.0
  0
LINE
  5
18AB
330
18A0
100
AcDbEntity
  8
0
 62
     0
380
     1
100
AcDbLine
 10
392.5
 20
440.0
 30
0.0
 11
392.5
 21
440.0
 31
0.0
  0
LINE
  5
18AC
330
18A0
100
AcDbEntity
  8
0
 62
     0
380
     1
100
AcDbLine
 10
395.0
 20
440.0
 30
0.0
 11
395.0
 21
440.0
 31
0.0
  0
LINE
  5
18AD
330
18A0
100
AcDbEntity
  8
0
 62
     0
380
     1
100
AcDbLine
 10
397.5
 20
440.0
 30
0.0
 11
397.5
 21
440.0
 31
0.0
  0
LINE
  5
18AE
330
18A0
100
AcDbEntity
  8
0
 62
     0
380
     1
100
AcDbLine
 10
400.0
 20
440.0
 30
0.0
 11
400.0
 21
440.0
 31
0.0
  0
LINE
  5
18AF
330
18A0
100
AcDbEntity
  8
0
 62
     0
380
     1
100
AcDbLine
 10
402.5
 20
440.0
 30
0.0
 11
402.5
 21
440.0
 31
0.0
  0
LINE
  5
18B0
330
18A0
100
AcDbEntity
  8
0
 62
     0
380
     1
100
AcDbLine
 10
405.0
 20
440.0
 30
0.0
 11
405.0
 21
440.0
 31
0.0
  0
LINE
  5
18B1
330
18A0
100
AcDbEntity
  8
0
 62
     0
380
     1
100
AcDbLine
 10
407.5
 20
440.0
 30
0.0
 11
407.5
 21
440.0
 31
0.0
  0
LINE
  5
18B2
330
18A0
100
AcDbEntity
  8
0
 62
     0
380
     1
100
AcDbLine
 10
410.0
 20
440.0
 30
0.0
 11
410.0
 21
440.0
 31
0.0
  0
LINE
  5
18B3
330
18A0
100
AcDbEntity
  8
0
 62
     0
380
     1
100
AcDbLine
 10
412.5
 20
440.0
 30
0.0
 11
412.5
 21
440.0
 31
0.0
  0
LINE
  5
18B4
330
18A0
100
AcDbEntity
  8
0
 62
     0
380
     1
100
AcDbLine
 10
415.0
 20
440.0
 30
0.0
 11
415.0
 21
440.0
 31
0.0
  0
LINE
  5
18B5
330
18A0
100
AcDbEntity
  8
0
 62
     0
380
     1
100
AcDbLine
 10
417.4999999999999
 20
440.0
 30
0.0
 11
417.4999999999999
 21
440.0
 31
0.0
  0
LINE
  5
18B6
330
18A0
100
AcDbEntity
  8
0
 62
     0
380
     1
100
AcDbLine
 10
420.0
 20
440.0
 30
0.0
 11
420.0
 21
440.0
 31
0.0
  0
LINE
  5
18B7
330
18A0
100
AcDbEntity
  8
0
 62
     0
380
     1
100
AcDbLine
 10
422.4999999999999
 20
440.0
 30
0.0
 11
422.4999999999999
 21
440.0
 31
0.0
  0
LINE
  5
18B8
330
18A0
100
AcDbEntity
  8
0
 62
     0
380
     1
100
AcDbLine
 10
368.75
 20
442.4999999999999
 30
0.0
 11
368.75
 21
442.4999999999999
 31
0.0
  0
LINE
  5
18B9
330
18A0
100
AcDbEntity
  8
0
 62
     0
380
     1
100
AcDbLine
 10
371.25
 20
442.4999999999999
 30
0.0
 11
371.25
 21
442.4999999999999
 31
0.0
  0
LINE
  5
18BA
330
18A0
100
AcDbEntity
  8
0
 62
     0
380
     1
100
AcDbLine
 10
373.75
 20
442.4999999999999
 30
0.0
 11
373.75
 21
442.4999999999999
 31
0.0
  0
LINE
  5
18BB
330
18A0
100
AcDbEntity
  8
0
 62
     0
380
     1
100
AcDbLine
 10
376.25
 20
442.4999999999999
 30
0.0
 11
376.25
 21
442.4999999999999
 31
0.0
  0
LINE
  5
18BC
330
18A0
100
AcDbEntity
  8
0
 62
     0
380
     1
100
AcDbLine
 10
378.75
 20
442.4999999999999
 30
0.0
 11
378.75
 21
442.4999999999999
 31
0.0
  0
LINE
  5
18BD
330
18A0
100
AcDbEntity
  8
0
 62
     0
380
     1
100
AcDbLine
 10
381.25
 20
442.4999999999999
 30
0.0
 11
381.25
 21
442.4999999999999
 31
0.0
  0
LINE
  5
18BE
330
18A0
100
AcDbEntity
  8
0
 62
     0
380
     1
100
AcDbLine
 10
383.75
 20
442.4999999999999
 30
0.0
 11
383.75
 21
442.4999999999999
 31
0.0
  0
LINE
  5
18BF
330
18A0
100
AcDbEntity
  8
0
 62
     0
380
     1
100
AcDbLine
 10
386.25
 20
442.4999999999999
 30
0.0
 11
386.25
 21
442.4999999999999
 31
0.0
  0
LINE
  5
18C0
330
18A0
100
AcDbEntity
  8
0
 62
     0
380
     1
100
AcDbLine
 10
388.75
 20
442.4999999999999
 30
0.0
 11
388.75
 21
442.4999999999999
 31
0.0
  0
LINE
  5
18C1
330
18A0
100
AcDbEntity
  8
0
 62
     0
380
     1
100
AcDbLine
 10
391.25
 20
442.4999999999999
 30
0.0
 11
391.25
 21
442.4999999999999
 31
0.0
  0
LINE
  5
18C2
330
18A0
100
AcDbEntity
  8
0
 62
     0
380
     1
100
AcDbLine
 10
393.75
 20
442.4999999999999
 30
0.0
 11
393.75
 21
442.4999999999999
 31
0.0
  0
LINE
  5
18C3
330
18A0
100
AcDbEntity
  8
0
 62
     0
380
     1
100
AcDbLine
 10
396.25
 20
442.4999999999999
 30
0.0
 11
396.25
 21
442.4999999999999
 31
0.0
  0
LINE
  5
18C4
330
18A0
100
AcDbEntity
  8
0
 62
     0
380
     1
100
AcDbLine
 10
398.75
 20
442.4999999999999
 30
0.0
 11
398.75
 21
442.4999999999999
 31
0.0
  0
LINE
  5
18C5
330
18A0
100
AcDbEntity
  8
0
 62
     0
380
     1
100
AcDbLine
 10
401.25
 20
442.4999999999999
 30
0.0
 11
401.25
 21
442.4999999999999
 31
0.0
  0
LINE
  5
18C6
330
18A0
100
AcDbEntity
  8
0
 62
     0
380
     1
100
AcDbLine
 10
403.7499999999999
 20
442.4999999999999
 30
0.0
 11
403.7499999999999
 21
442.4999999999999
 31
0.0
  0
LINE
  5
18C7
330
18A0
100
AcDbEntity
  8
0
 62
     0
380
     1
100
AcDbLine
 10
406.25
 20
442.4999999999999
 30
0.0
 11
406.25
 21
442.4999999999999
 31
0.0
  0
LINE
  5
18C8
330
18A0
100
AcDbEntity
  8
0
 62
     0
380
     1
100
AcDbLine
 10
408.75
 20
442.4999999999999
 30
0.0
 11
408.75
 21
442.4999999999999
 31
0.0
  0
LINE
  5
18C9
330
18A0
100
AcDbEntity
  8
0
 62
     0
380
     1
100
AcDbLine
 10
411.2499999999999
 20
442.4999999999999
 30
0.0
 11
411.2499999999999
 21
442.4999999999999
 31
0.0
  0
LINE
  5
18CA
330
18A0
100
AcDbEntity
  8
0
 62
     0
380
     1
100
AcDbLine
 10
413.75
 20
442.4999999999999
 30
0.0
 11
413.75
 21
442.4999999999999
 31
0.0
  0
LINE
  5
18CB
330
18A0
100
AcDbEntity
  8
0
 62
     0
380
     1
100
AcDbLine
 10
416.2499999999999
 20
442.4999999999999
 30
0.0
 11
416.2499999999999
 21
442.4999999999999
 31
0.0
  0
LINE
  5
18CC
330
18A0
100
AcDbEntity
  8
0
 62
     0
380
     1
100
AcDbLine
 10
418.75
 20
442.4999999999999
 30
0.0
 11
418.75
 21
442.4999999999999
 31
0.0
  0
LINE
  5
18CD
330
18A0
100
AcDbEntity
  8
0
 62
     0
380
     1
100
AcDbLine
 10
421.25
 20
442.4999999999999
 30
0.0
 11
421.25
 21
442.4999999999999
 31
0.0
  0
LINE
  5
18CE
330
18A0
100
AcDbEntity
  8
0
 62
     0
380
     1
100
AcDbLine
 10
367.5
 20
445.0
 30
0.0
 11
367.5
 21
445.0
 31
0.0
  0
LINE
  5
18CF
330
18A0
100
AcDbEntity
  8
0
 62
     0
380
     1
100
AcDbLine
 10
370.0
 20
445.0
 30
0.0
 11
370.0
 21
445.0
 31
0.0
  0
LINE
  5
18D0
330
18A0
100
AcDbEntity
  8
0
 62
     0
380
     1
100
AcDbLine
 10
372.5
 20
445.0
 30
0.0
 11
372.5
 21
445.0
 31
0.0
  0
LINE
  5
18D1
330
18A0
100
AcDbEntity
  8
0
 62
     0
380
     1
100
AcDbLine
 10
375.0
 20
445.0
 30
0.0
 11
375.0
 21
445.0
 31
0.0
  0
LINE
  5
18D2
330
18A0
100
AcDbEntity
  8
0
 62
     0
380
     1
100
AcDbLine
 10
377.5
 20
445.0
 30
0.0
 11
377.5
 21
445.0
 31
0.0
  0
LINE
  5
18D3
330
18A0
100
AcDbEntity
  8
0
 62
     0
380
     1
100
AcDbLine
 10
380.0
 20
445.0
 30
0.0
 11
380.0
 21
445.0
 31
0.0
  0
LINE
  5
18D4
330
18A0
100
AcDbEntity
  8
0
 62
     0
380
     1
100
AcDbLine
 10
382.5
 20
445.0
 30
0.0
 11
382.5
 21
445.0
 31
0.0
  0
LINE
  5
18D5
330
18A0
100
AcDbEntity
  8
0
 62
     0
380
     1
100
AcDbLine
 10
385.0
 20
445.0
 30
0.0
 11
385.0
 21
445.0
 31
0.0
  0
LINE
  5
18D6
330
18A0
100
AcDbEntity
  8
0
 62
     0
380
     1
100
AcDbLine
 10
387.5
 20
445.0
 30
0.0
 11
387.5
 21
445.0
 31
0.0
  0
LINE
  5
18D7
330
18A0
100
AcDbEntity
  8
0
 62
     0
380
     1
100
AcDbLine
 10
390.0
 20
445.0
 30
0.0
 11
390.0
 21
445.0
 31
0.0
  0
LINE
  5
18D8
330
18A0
100
AcDbEntity
  8
0
 62
     0
380
     1
100
AcDbLine
 10
392.5
 20
445.0
 30
0.0
 11
392.5
 21
445.0
 31
0.0
  0
LINE
  5
18D9
330
18A0
100
AcDbEntity
  8
0
 62
     0
380
     1
100
AcDbLine
 10
395.0
 20
445.0
 30
0.0
 11
395.0
 21
445.0
 31
0.0
  0
LINE
  5
18DA
330
18A0
100
AcDbEntity
  8
0
 62
     0
380
     1
100
AcDbLine
 10
397.5
 20
445.0
 30
0.0
 11
397.5
 21
445.0
 31
0.0
  0
LINE
  5
18DB
330
18A0
100
AcDbEntity
  8
0
 62
     0
380
     1
100
AcDbLine
 10
400.0
 20
445.0
 30
0.0
 11
400.0
 21
445.0
 31
0.0
  0
LINE
  5
18DC
330
18A0
100
AcDbEntity
  8
0
 62
     0
380
     1
100
AcDbLine
 10
402.5
 20
445.0
 30
0.0
 11
402.5
 21
445.0
 31
0.0
  0
LINE
  5
18DD
330
18A0
100
AcDbEntity
  8
0
 62
     0
380
     1
100
AcDbLine
 10
405.0
 20
445.0
 30
0.0
 11
405.0
 21
445.0
 31
0.0
  0
LINE
  5
18DE
330
18A0
100
AcDbEntity
  8
0
 62
     0
380
     1
100
AcDbLine
 10
407.5
 20
445.0
 30
0.0
 11
407.5
 21
445.0
 31
0.0
  0
LINE
  5
18DF
330
18A0
100
AcDbEntity
  8
0
 62
     0
380
     1
100
AcDbLine
 10
410.0
 20
445.0
 30
0.0
 11
410.0
 21
445.0
 31
0.0
  0
LINE
  5
18E0
330
18A0
100
AcDbEntity
  8
0
 62
     0
380
     1
100
AcDbLine
 10
412.5
 20
445.0
 30
0.0
 11
412.5
 21
445.0
 31
0.0
  0
LINE
  5
18E1
330
18A0
100
AcDbEntity
  8
0
 62
     0
380
     1
100
AcDbLine
 10
415.0
 20
445.0
 30
0.0
 11
415.0
 21
445.0
 31
0.0
  0
LINE
  5
18E2
330
18A0
100
AcDbEntity
  8
0
 62
     0
380
     1
100
AcDbLine
 10
417.4999999999999
 20
445.0
 30
0.0
 11
417.4999999999999
 21
445.0
 31
0.0
  0
LINE
  5
18E3
330
18A0
100
AcDbEntity
  8
0
 62
     0
380
     1
100
AcDbLine
 10
420.0
 20
445.0
 30
0.0
 11
420.0
 21
445.0
 31
0.0
  0
LINE
  5
18E4
330
18A0
100
AcDbEntity
  8
0
 62
     0
380
     1
100
AcDbLine
 10
422.4999999999999
 20
445.0
 30
0.0
 11
422.4999999999999
 21
445.0
 31
0.0
  0
LINE
  5
18E5
330
18A0
100
AcDbEntity
  8
0
 62
     0
380
     1
100
AcDbLine
 10
368.75
 20
447.5
 30
0.0
 11
368.75
 21
447.5
 31
0.0
  0
LINE
  5
18E6
330
18A0
100
AcDbEntity
  8
0
 62
     0
380
     1
100
AcDbLine
 10
371.25
 20
447.5
 30
0.0
 11
371.25
 21
447.5
 31
0.0
  0
LINE
  5
18E7
330
18A0
100
AcDbEntity
  8
0
 62
     0
380
     1
100
AcDbLine
 10
373.75
 20
447.5
 30
0.0
 11
373.75
 21
447.5
 31
0.0
  0
LINE
  5
18E8
330
18A0
100
AcDbEntity
  8
0
 62
     0
380
     1
100
AcDbLine
 10
376.25
 20
447.5
 30
0.0
 11
376.25
 21
447.5
 31
0.0
  0
LINE
  5
18E9
330
18A0
100
AcDbEntity
  8
0
 62
     0
380
     1
100
AcDbLine
 10
378.75
 20
447.5
 30
0.0
 11
378.75
 21
447.5
 31
0.0
  0
LINE
  5
18EA
330
18A0
100
AcDbEntity
  8
0
 62
     0
380
     1
100
AcDbLine
 10
381.25
 20
447.5
 30
0.0
 11
381.25
 21
447.5
 31
0.0
  0
LINE
  5
18EB
330
18A0
100
AcDbEntity
  8
0
 62
     0
380
     1
100
AcDbLine
 10
383.75
 20
447.5
 30
0.0
 11
383.75
 21
447.5
 31
0.0
  0
LINE
  5
18EC
330
18A0
100
AcDbEntity
  8
0
 62
     0
380
     1
100
AcDbLine
 10
386.25
 20
447.5
 30
0.0
 11
386.25
 21
447.5
 31
0.0
  0
LINE
  5
18ED
330
18A0
100
AcDbEntity
  8
0
 62
     0
380
     1
100
AcDbLine
 10
388.75
 20
447.5
 30
0.0
 11
388.75
 21
447.5
 31
0.0
  0
LINE
  5
18EE
330
18A0
100
AcDbEntity
  8
0
 62
     0
380
     1
100
AcDbLine
 10
391.25
 20
447.5
 30
0.0
 11
391.25
 21
447.5
 31
0.0
  0
LINE
  5
18EF
330
18A0
100
AcDbEntity
  8
0
 62
     0
380
     1
100
AcDbLine
 10
393.75
 20
447.5
 30
0.0
 11
393.75
 21
447.5
 31
0.0
  0
LINE
  5
18F0
330
18A0
100
AcDbEntity
  8
0
 62
     0
380
     1
100
AcDbLine
 10
396.25
 20
447.5
 30
0.0
 11
396.25
 21
447.5
 31
0.0
  0
LINE
  5
18F1
330
18A0
100
AcDbEntity
  8
0
 62
     0
380
     1
100
AcDbLine
 10
398.75
 20
447.5
 30
0.0
 11
398.75
 21
447.5
 31
0.0
  0
LINE
  5
18F2
330
18A0
100
AcDbEntity
  8
0
 62
     0
380
     1
100
AcDbLine
 10
401.25
 20
447.5
 30
0.0
 11
401.25
 21
447.5
 31
0.0
  0
LINE
  5
18F3
330
18A0
100
AcDbEntity
  8
0
 62
     0
380
     1
100
AcDbLine
 10
403.7499999999999
 20
447.5
 30
0.0
 11
403.7499999999999
 21
447.5
 31
0.0
  0
LINE
  5
18F4
330
18A0
100
AcDbEntity
  8
0
 62
     0
380
     1
100
AcDbLine
 10
406.25
 20
447.5
 30
0.0
 11
406.25
 21
447.5
 31
0.0
  0
LINE
  5
18F5
330
18A0
100
AcDbEntity
  8
0
 62
     0
380
     1
100
AcDbLine
 10
408.75
 20
447.5
 30
0.0
 11
408.75
 21
447.5
 31
0.0
  0
LINE
  5
18F6
330
18A0
100
AcDbEntity
  8
0
 62
     0
380
     1
100
AcDbLine
 10
411.2499999999999
 20
447.5
 30
0.0
 11
411.2499999999999
 21
447.5
 31
0.0
  0
LINE
  5
18F7
330
18A0
100
AcDbEntity
  8
0
 62
     0
380
     1
100
AcDbLine
 10
413.75
 20
447.5
 30
0.0
 11
413.75
 21
447.5
 31
0.0
  0
LINE
  5
18F8
330
18A0
100
AcDbEntity
  8
0
 62
     0
380
     1
100
AcDbLine
 10
416.2499999999999
 20
447.5
 30
0.0
 11
416.2499999999999
 21
447.5
 31
0.0
  0
LINE
  5
18F9
330
18A0
100
AcDbEntity
  8
0
 62
     0
380
     1
100
AcDbLine
 10
418.75
 20
447.5
 30
0.0
 11
418.75
 21
447.5
 31
0.0
  0
LINE
  5
18FA
330
18A0
100
AcDbEntity
  8
0
 62
     0
380
     1
100
AcDbLine
 10
421.25
 20
447.5
 30
0.0
 11
421.25
 21
447.5
 31
0.0
  0
LINE
  5
18FB
330
18A0
100
AcDbEntity
  8
0
 62
     0
380
     1
100
AcDbLine
 10
367.5
 20
450.0
 30
0.0
 11
367.5
 21
450.0
 31
0.0
  0
LINE
  5
18FC
330
18A0
100
AcDbEntity
  8
0
 62
     0
380
     1
100
AcDbLine
 10
370.0
 20
450.0
 30
0.0
 11
370.0
 21
450.0
 31
0.0
  0
LINE
  5
18FD
330
18A0
100
AcDbEntity
  8
0
 62
     0
380
     1
100
AcDbLine
 10
372.5
 20
450.0
 30
0.0
 11
372.5
 21
450.0
 31
0.0
  0
LINE
  5
18FE
330
18A0
100
AcDbEntity
  8
0
 62
     0
380
     1
100
AcDbLine
 10
375.0
 20
450.0
 30
0.0
 11
375.0
 21
450.0
 31
0.0
  0
LINE
  5
18FF
330
18A0
100
AcDbEntity
  8
0
 62
     0
380
     1
100
AcDbLine
 10
377.5
 20
450.0
 30
0.0
 11
377.5
 21
450.0
 31
0.0
  0
LINE
  5
1900
330
18A0
100
AcDbEntity
  8
0
 62
     0
380
     1
100
AcDbLine
 10
380.0
 20
450.0
 30
0.0
 11
380.0
 21
450.0
 31
0.0
  0
LINE
  5
1901
330
18A0
100
AcDbEntity
  8
0
 62
     0
380
     1
100
AcDbLine
 10
382.5
 20
450.0
 30
0.0
 11
382.5
 21
450.0
 31
0.0
  0
LINE
  5
1902
330
18A0
100
AcDbEntity
  8
0
 62
     0
380
     1
100
AcDbLine
 10
385.0
 20
450.0
 30
0.0
 11
385.0
 21
450.0
 31
0.0
  0
LINE
  5
1903
330
18A0
100
AcDbEntity
  8
0
 62
     0
380
     1
100
AcDbLine
 10
387.5
 20
450.0
 30
0.0
 11
387.5
 21
450.0
 31
0.0
  0
LINE
  5
1904
330
18A0
100
AcDbEntity
  8
0
 62
     0
380
     1
100
AcDbLine
 10
390.0
 20
450.0
 30
0.0
 11
390.0
 21
450.0
 31
0.0
  0
LINE
  5
1905
330
18A0
100
AcDbEntity
  8
0
 62
     0
380
     1
100
AcDbLine
 10
392.5
 20
450.0
 30
0.0
 11
392.5
 21
450.0
 31
0.0
  0
LINE
  5
1906
330
18A0
100
AcDbEntity
  8
0
 62
     0
380
     1
100
AcDbLine
 10
395.0
 20
450.0
 30
0.0
 11
395.0
 21
450.0
 31
0.0
  0
LINE
  5
1907
330
18A0
100
AcDbEntity
  8
0
 62
     0
380
     1
100
AcDbLine
 10
397.5
 20
450.0
 30
0.0
 11
397.5
 21
450.0
 31
0.0
  0
LINE
  5
1908
330
18A0
100
AcDbEntity
  8
0
 62
     0
380
     1
100
AcDbLine
 10
400.0
 20
450.0
 30
0.0
 11
400.0
 21
450.0
 31
0.0
  0
LINE
  5
1909
330
18A0
100
AcDbEntity
  8
0
 62
     0
380
     1
100
AcDbLine
 10
402.5
 20
450.0
 30
0.0
 11
402.5
 21
450.0
 31
0.0
  0
LINE
  5
190A
330
18A0
100
AcDbEntity
  8
0
 62
     0
380
     1
100
AcDbLine
 10
405.0
 20
450.0
 30
0.0
 11
405.0
 21
450.0
 31
0.0
  0
LINE
  5
190B
330
18A0
100
AcDbEntity
  8
0
 62
     0
380
     1
100
AcDbLine
 10
407.5
 20
450.0
 30
0.0
 11
407.5
 21
450.0
 31
0.0
  0
LINE
  5
190C
330
18A0
100
AcDbEntity
  8
0
 62
     0
380
     1
100
AcDbLine
 10
410.0
 20
450.0
 30
0.0
 11
410.0
 21
450.0
 31
0.0
  0
LINE
  5
190D
330
18A0
100
AcDbEntity
  8
0
 62
     0
380
     1
100
AcDbLine
 10
412.5
 20
450.0
 30
0.0
 11
412.5
 21
450.0
 31
0.0
  0
LINE
  5
190E
330
18A0
100
AcDbEntity
  8
0
 62
     0
380
     1
100
AcDbLine
 10
415.0
 20
450.0
 30
0.0
 11
415.0
 21
450.0
 31
0.0
  0
LINE
  5
190F
330
18A0
100
AcDbEntity
  8
0
 62
     0
380
     1
100
AcDbLine
 10
417.4999999999999
 20
450.0
 30
0.0
 11
417.4999999999999
 21
450.0
 31
0.0
  0
LINE
  5
1910
330
18A0
100
AcDbEntity
  8
0
 62
     0
380
     1
100
AcDbLine
 10
420.0
 20
450.0
 30
0.0
 11
420.0
 21
450.0
 31
0.0
  0
LINE
  5
1911
330
18A0
100
AcDbEntity
  8
0
 62
     0
380
     1
100
AcDbLine
 10
422.4999999999999
 20
450.0
 30
0.0
 11
422.4999999999999
 21
450.0
 31
0.0
  0
LINE
  5
1912
330
18A0
100
AcDbEntity
  8
0
 62
     0
380
     1
100
AcDbLine
 10
368.75
 20
437.5
 30
0.0
 11
368.75
 21
437.5
 31
0.0
  0
LINE
  5
1913
330
18A0
100
AcDbEntity
  8
0
 62
     0
380
     1
100
AcDbLine
 10
371.25
 20
437.5
 30
0.0
 11
371.25
 21
437.5
 31
0.0
  0
LINE
  5
1914
330
18A0
100
AcDbEntity
  8
0
 62
     0
380
     1
100
AcDbLine
 10
373.75
 20
437.5
 30
0.0
 11
373.75
 21
437.5
 31
0.0
  0
LINE
  5
1915
330
18A0
100
AcDbEntity
  8
0
 62
     0
380
     1
100
AcDbLine
 10
376.25
 20
437.5
 30
0.0
 11
376.25
 21
437.5
 31
0.0
  0
LINE
  5
1916
330
18A0
100
AcDbEntity
  8
0
 62
     0
380
     1
100
AcDbLine
 10
378.75
 20
437.5
 30
0.0
 11
378.75
 21
437.5
 31
0.0
  0
LINE
  5
1917
330
18A0
100
AcDbEntity
  8
0
 62
     0
380
     1
100
AcDbLine
 10
381.25
 20
437.5
 30
0.0
 11
381.25
 21
437.5
 31
0.0
  0
LINE
  5
1918
330
18A0
100
AcDbEntity
  8
0
 62
     0
380
     1
100
AcDbLine
 10
383.75
 20
437.5
 30
0.0
 11
383.75
 21
437.5
 31
0.0
  0
LINE
  5
1919
330
18A0
100
AcDbEntity
  8
0
 62
     0
380
     1
100
AcDbLine
 10
386.25
 20
437.5
 30
0.0
 11
386.25
 21
437.5
 31
0.0
  0
LINE
  5
191A
330
18A0
100
AcDbEntity
  8
0
 62
     0
380
     1
100
AcDbLine
 10
388.75
 20
437.5
 30
0.0
 11
388.75
 21
437.5
 31
0.0
  0
LINE
  5
191B
330
18A0
100
AcDbEntity
  8
0
 62
     0
380
     1
100
AcDbLine
 10
391.25
 20
437.5
 30
0.0
 11
391.25
 21
437.5
 31
0.0
  0
LINE
  5
191C
330
18A0
100
AcDbEntity
  8
0
 62
     0
380
     1
100
AcDbLine
 10
393.75
 20
437.5
 30
0.0
 11
393.75
 21
437.5
 31
0.0
  0
LINE
  5
191D
330
18A0
100
AcDbEntity
  8
0
 62
     0
380
     1
100
AcDbLine
 10
396.25
 20
437.5
 30
0.0
 11
396.25
 21
437.5
 31
0.0
  0
LINE
  5
191E
330
18A0
100
AcDbEntity
  8
0
 62
     0
380
     1
100
AcDbLine
 10
398.75
 20
437.5
 30
0.0
 11
398.75
 21
437.5
 31
0.0
  0
LINE
  5
191F
330
18A0
100
AcDbEntity
  8
0
 62
     0
380
     1
100
AcDbLine
 10
401.25
 20
437.5
 30
0.0
 11
401.25
 21
437.5
 31
0.0
  0
LINE
  5
1920
330
18A0
100
AcDbEntity
  8
0
 62
     0
380
     1
100
AcDbLine
 10
403.7499999999999
 20
437.5
 30
0.0
 11
403.7499999999999
 21
437.5
 31
0.0
  0
LINE
  5
1921
330
18A0
100
AcDbEntity
  8
0
 62
     0
380
     1
100
AcDbLine
 10
406.25
 20
437.5
 30
0.0
 11
406.25
 21
437.5
 31
0.0
  0
LINE
  5
1922
330
18A0
100
AcDbEntity
  8
0
 62
     0
380
     1
100
AcDbLine
 10
408.75
 20
437.5
 30
0.0
 11
408.75
 21
437.5
 31
0.0
  0
LINE
  5
1923
330
18A0
100
AcDbEntity
  8
0
 62
     0
380
     1
100
AcDbLine
 10
411.2499999999999
 20
437.5
 30
0.0
 11
411.2499999999999
 21
437.5
 31
0.0
  0
LINE
  5
1924
330
18A0
100
AcDbEntity
  8
0
 62
     0
380
     1
100
AcDbLine
 10
413.75
 20
437.5
 30
0.0
 11
413.75
 21
437.5
 31
0.0
  0
LINE
  5
1925
330
18A0
100
AcDbEntity
  8
0
 62
     0
380
     1
100
AcDbLine
 10
416.2499999999999
 20
437.5
 30
0.0
 11
416.2499999999999
 21
437.5
 31
0.0
  0
LINE
  5
1926
330
18A0
100
AcDbEntity
  8
0
 62
     0
380
     1
100
AcDbLine
 10
418.75
 20
437.5
 30
0.0
 11
418.75
 21
437.5
 31
0.0
  0
LINE
  5
1927
330
18A0
100
AcDbEntity
  8
0
 62
     0
380
     1
100
AcDbLine
 10
421.25
 20
437.5
 30
0.0
 11
421.25
 21
437.5
 31
0.0
  0
LINE
  5
1928
330
18A0
100
AcDbEntity
  8
0
 62
     0
380
     1
100
AcDbLine
 10
367.5
 20
435.0
 30
0.0
 11
367.5
 21
435.0
 31
0.0
  0
LINE
  5
1929
330
18A0
100
AcDbEntity
  8
0
 62
     0
380
     1
100
AcDbLine
 10
370.0
 20
435.0
 30
0.0
 11
370.0
 21
435.0
 31
0.0
  0
LINE
  5
192A
330
18A0
100
AcDbEntity
  8
0
 62
     0
380
     1
100
AcDbLine
 10
372.5
 20
435.0
 30
0.0
 11
372.5
 21
435.0
 31
0.0
  0
LINE
  5
192B
330
18A0
100
AcDbEntity
  8
0
 62
     0
380
     1
100
AcDbLine
 10
375.0
 20
435.0
 30
0.0
 11
375.0
 21
435.0
 31
0.0
  0
LINE
  5
192C
330
18A0
100
AcDbEntity
  8
0
 62
     0
380
     1
100
AcDbLine
 10
377.5
 20
435.0
 30
0.0
 11
377.5
 21
435.0
 31
0.0
  0
LINE
  5
192D
330
18A0
100
AcDbEntity
  8
0
 62
     0
380
     1
100
AcDbLine
 10
380.0
 20
435.0
 30
0.0
 11
380.0
 21
435.0
 31
0.0
  0
LINE
  5
192E
330
18A0
100
AcDbEntity
  8
0
 62
     0
380
     1
100
AcDbLine
 10
382.5
 20
435.0
 30
0.0
 11
382.5
 21
435.0
 31
0.0
  0
LINE
  5
192F
330
18A0
100
AcDbEntity
  8
0
 62
     0
380
     1
100
AcDbLine
 10
385.0
 20
435.0
 30
0.0
 11
385.0
 21
435.0
 31
0.0
  0
LINE
  5
1930
330
18A0
100
AcDbEntity
  8
0
 62
     0
380
     1
100
AcDbLine
 10
387.5
 20
435.0
 30
0.0
 11
387.5
 21
435.0
 31
0.0
  0
LINE
  5
1931
330
18A0
100
AcDbEntity
  8
0
 62
     0
380
     1
100
AcDbLine
 10
390.0
 20
435.0
 30
0.0
 11
390.0
 21
435.0
 31
0.0
  0
LINE
  5
1932
330
18A0
100
AcDbEntity
  8
0
 62
     0
380
     1
100
AcDbLine
 10
392.5
 20
435.0
 30
0.0
 11
392.5
 21
435.0
 31
0.0
  0
LINE
  5
1933
330
18A0
100
AcDbEntity
  8
0
 62
     0
380
     1
100
AcDbLine
 10
395.0
 20
435.0
 30
0.0
 11
395.0
 21
435.0
 31
0.0
  0
LINE
  5
1934
330
18A0
100
AcDbEntity
  8
0
 62
     0
380
     1
100
AcDbLine
 10
397.5
 20
435.0
 30
0.0
 11
397.5
 21
435.0
 31
0.0
  0
LINE
  5
1935
330
18A0
100
AcDbEntity
  8
0
 62
     0
380
     1
100
AcDbLine
 10
400.0
 20
435.0
 30
0.0
 11
400.0
 21
435.0
 31
0.0
  0
LINE
  5
1936
330
18A0
100
AcDbEntity
  8
0
 62
     0
380
     1
100
AcDbLine
 10
402.5
 20
435.0
 30
0.0
 11
402.5
 21
435.0
 31
0.0
  0
LINE
  5
1937
330
18A0
100
AcDbEntity
  8
0
 62
     0
380
     1
100
AcDbLine
 10
405.0
 20
435.0
 30
0.0
 11
405.0
 21
435.0
 31
0.0
  0
LINE
  5
1938
330
18A0
100
AcDbEntity
  8
0
 62
     0
380
     1
100
AcDbLine
 10
407.5
 20
435.0
 30
0.0
 11
407.5
 21
435.0
 31
0.0
  0
LINE
  5
1939
330
18A0
100
AcDbEntity
  8
0
 62
     0
380
     1
100
AcDbLine
 10
410.0
 20
435.0
 30
0.0
 11
410.0
 21
435.0
 31
0.0
  0
LINE
  5
193A
330
18A0
100
AcDbEntity
  8
0
 62
     0
380
     1
100
AcDbLine
 10
412.5
 20
435.0
 30
0.0
 11
412.5
 21
435.0
 31
0.0
  0
LINE
  5
193B
330
18A0
100
AcDbEntity
  8
0
 62
     0
380
     1
100
AcDbLine
 10
415.0
 20
435.0
 30
0.0
 11
415.0
 21
435.0
 31
0.0
  0
LINE
  5
193C
330
18A0
100
AcDbEntity
  8
0
 62
     0
380
     1
100
AcDbLine
 10
417.4999999999999
 20
435.0
 30
0.0
 11
417.4999999999999
 21
435.0
 31
0.0
  0
LINE
  5
193D
330
18A0
100
AcDbEntity
  8
0
 62
     0
380
     1
100
AcDbLine
 10
420.0
 20
435.0
 30
0.0
 11
420.0
 21
435.0
 31
0.0
  0
LINE
  5
193E
330
18A0
100
AcDbEntity
  8
0
 62
     0
380
     1
100
AcDbLine
 10
422.4999999999999
 20
435.0
 30
0.0
 11
422.4999999999999
 21
435.0
 31
0.0
  0
LINE
  5
193F
330
18A0
100
AcDbEntity
  8
0
 62
     0
380
     1
100
AcDbLine
 10
368.75
 20
432.5
 30
0.0
 11
368.75
 21
432.5
 31
0.0
  0
LINE
  5
1940
330
18A0
100
AcDbEntity
  8
0
 62
     0
380
     1
100
AcDbLine
 10
371.25
 20
432.5
 30
0.0
 11
371.25
 21
432.5
 31
0.0
  0
LINE
  5
1941
330
18A0
100
AcDbEntity
  8
0
 62
     0
380
     1
100
AcDbLine
 10
373.75
 20
432.5
 30
0.0
 11
373.75
 21
432.5
 31
0.0
  0
LINE
  5
1942
330
18A0
100
AcDbEntity
  8
0
 62
     0
380
     1
100
AcDbLine
 10
376.25
 20
432.5
 30
0.0
 11
376.25
 21
432.5
 31
0.0
  0
LINE
  5
1943
330
18A0
100
AcDbEntity
  8
0
 62
     0
380
     1
100
AcDbLine
 10
378.75
 20
432.5
 30
0.0
 11
378.75
 21
432.5
 31
0.0
  0
LINE
  5
1944
330
18A0
100
AcDbEntity
  8
0
 62
     0
380
     1
100
AcDbLine
 10
381.25
 20
432.5
 30
0.0
 11
381.25
 21
432.5
 31
0.0
  0
LINE
  5
1945
330
18A0
100
AcDbEntity
  8
0
 62
     0
380
     1
100
AcDbLine
 10
383.75
 20
432.5
 30
0.0
 11
383.75
 21
432.5
 31
0.0
  0
LINE
  5
1946
330
18A0
100
AcDbEntity
  8
0
 62
     0
380
     1
100
AcDbLine
 10
386.25
 20
432.5
 30
0.0
 11
386.25
 21
432.5
 31
0.0
  0
LINE
  5
1947
330
18A0
100
AcDbEntity
  8
0
 62
     0
380
     1
100
AcDbLine
 10
388.75
 20
432.5
 30
0.0
 11
388.75
 21
432.5
 31
0.0
  0
LINE
  5
1948
330
18A0
100
AcDbEntity
  8
0
 62
     0
380
     1
100
AcDbLine
 10
391.25
 20
432.5
 30
0.0
 11
391.25
 21
432.5
 31
0.0
  0
LINE
  5
1949
330
18A0
100
AcDbEntity
  8
0
 62
     0
380
     1
100
AcDbLine
 10
393.75
 20
432.5
 30
0.0
 11
393.75
 21
432.5
 31
0.0
  0
LINE
  5
194A
330
18A0
100
AcDbEntity
  8
0
 62
     0
380
     1
100
AcDbLine
 10
396.25
 20
432.5
 30
0.0
 11
396.25
 21
432.5
 31
0.0
  0
LINE
  5
194B
330
18A0
100
AcDbEntity
  8
0
 62
     0
380
     1
100
AcDbLine
 10
398.75
 20
432.5
 30
0.0
 11
398.75
 21
432.5
 31
0.0
  0
LINE
  5
194C
330
18A0
100
AcDbEntity
  8
0
 62
     0
380
     1
100
AcDbLine
 10
401.25
 20
432.5
 30
0.0
 11
401.25
 21
432.5
 31
0.0
  0
LINE
  5
194D
330
18A0
100
AcDbEntity
  8
0
 62
     0
380
     1
100
AcDbLine
 10
403.7499999999999
 20
432.5
 30
0.0
 11
403.7499999999999
 21
432.5
 31
0.0
  0
LINE
  5
194E
330
18A0
100
AcDbEntity
  8
0
 62
     0
380
     1
100
AcDbLine
 10
406.25
 20
432.5
 30
0.0
 11
406.25
 21
432.5
 31
0.0
  0
LINE
  5
194F
330
18A0
100
AcDbEntity
  8
0
 62
     0
380
     1
100
AcDbLine
 10
408.75
 20
432.5
 30
0.0
 11
408.75
 21
432.5
 31
0.0
  0
LINE
  5
1950
330
18A0
100
AcDbEntity
  8
0
 62
     0
380
     1
100
AcDbLine
 10
411.2499999999999
 20
432.5
 30
0.0
 11
411.2499999999999
 21
432.5
 31
0.0
  0
LINE
  5
1951
330
18A0
100
AcDbEntity
  8
0
 62
     0
380
     1
100
AcDbLine
 10
413.75
 20
432.5
 30
0.0
 11
413.75
 21
432.5
 31
0.0
  0
LINE
  5
1952
330
18A0
100
AcDbEntity
  8
0
 62
     0
380
     1
100
AcDbLine
 10
416.2499999999999
 20
432.5
 30
0.0
 11
416.2499999999999
 21
432.5
 31
0.0
  0
LINE
  5
1953
330
18A0
100
AcDbEntity
  8
0
 62
     0
380
     1
100
AcDbLine
 10
418.75
 20
432.5
 30
0.0
 11
418.75
 21
432.5
 31
0.0
  0
LINE
  5
1954
330
18A0
100
AcDbEntity
  8
0
 62
     0
380
     1
100
AcDbLine
 10
421.25
 20
432.5
 30
0.0
 11
421.25
 21
432.5
 31
0.0
  0
LINE
  5
1955
330
18A0
100
AcDbEntity
  8
0
 62
     0
380
     1
100
AcDbLine
 10
367.5
 20
430.0
 30
0.0
 11
367.5
 21
430.0
 31
0.0
  0
LINE
  5
1956
330
18A0
100
AcDbEntity
  8
0
 62
     0
380
     1
100
AcDbLine
 10
370.0
 20
430.0
 30
0.0
 11
370.0
 21
430.0
 31
0.0
  0
LINE
  5
1957
330
18A0
100
AcDbEntity
  8
0
 62
     0
380
     1
100
AcDbLine
 10
372.5
 20
430.0
 30
0.0
 11
372.5
 21
430.0
 31
0.0
  0
LINE
  5
1958
330
18A0
100
AcDbEntity
  8
0
 62
     0
380
     1
100
AcDbLine
 10
375.0
 20
430.0
 30
0.0
 11
375.0
 21
430.0
 31
0.0
  0
LINE
  5
1959
330
18A0
100
AcDbEntity
  8
0
 62
     0
380
     1
100
AcDbLine
 10
377.5
 20
430.0
 30
0.0
 11
377.5
 21
430.0
 31
0.0
  0
LINE
  5
195A
330
18A0
100
AcDbEntity
  8
0
 62
     0
380
     1
100
AcDbLine
 10
380.0
 20
430.0
 30
0.0
 11
380.0
 21
430.0
 31
0.0
  0
LINE
  5
195B
330
18A0
100
AcDbEntity
  8
0
 62
     0
380
     1
100
AcDbLine
 10
382.5
 20
430.0
 30
0.0
 11
382.5
 21
430.0
 31
0.0
  0
LINE
  5
195C
330
18A0
100
AcDbEntity
  8
0
 62
     0
380
     1
100
AcDbLine
 10
385.0
 20
430.0
 30
0.0
 11
385.0
 21
430.0
 31
0.0
  0
LINE
  5
195D
330
18A0
100
AcDbEntity
  8
0
 62
     0
380
     1
100
AcDbLine
 10
387.5
 20
430.0
 30
0.0
 11
387.5
 21
430.0
 31
0.0
  0
LINE
  5
195E
330
18A0
100
AcDbEntity
  8
0
 62
     0
380
     1
100
AcDbLine
 10
390.0
 20
430.0
 30
0.0
 11
390.0
 21
430.0
 31
0.0
  0
LINE
  5
195F
330
18A0
100
AcDbEntity
  8
0
 62
     0
380
     1
100
AcDbLine
 10
392.5
 20
430.0
 30
0.0
 11
392.5
 21
430.0
 31
0.0
  0
LINE
  5
1960
330
18A0
100
AcDbEntity
  8
0
 62
     0
380
     1
100
AcDbLine
 10
395.0
 20
430.0
 30
0.0
 11
395.0
 21
430.0
 31
0.0
  0
LINE
  5
1961
330
18A0
100
AcDbEntity
  8
0
 62
     0
380
     1
100
AcDbLine
 10
397.5
 20
430.0
 30
0.0
 11
397.5
 21
430.0
 31
0.0
  0
LINE
  5
1962
330
18A0
100
AcDbEntity
  8
0
 62
     0
380
     1
100
AcDbLine
 10
400.0
 20
430.0
 30
0.0
 11
400.0
 21
430.0
 31
0.0
  0
LINE
  5
1963
330
18A0
100
AcDbEntity
  8
0
 62
     0
380
     1
100
AcDbLine
 10
402.5
 20
430.0
 30
0.0
 11
402.5
 21
430.0
 31
0.0
  0
LINE
  5
1964
330
18A0
100
AcDbEntity
  8
0
 62
     0
380
     1
100
AcDbLine
 10
405.0
 20
430.0
 30
0.0
 11
405.0
 21
430.0
 31
0.0
  0
LINE
  5
1965
330
18A0
100
AcDbEntity
  8
0
 62
     0
380
     1
100
AcDbLine
 10
407.5
 20
430.0
 30
0.0
 11
407.5
 21
430.0
 31
0.0
  0
LINE
  5
1966
330
18A0
100
AcDbEntity
  8
0
 62
     0
380
     1
100
AcDbLine
 10
410.0
 20
430.0
 30
0.0
 11
410.0
 21
430.0
 31
0.0
  0
LINE
  5
1967
330
18A0
100
AcDbEntity
  8
0
 62
     0
380
     1
100
AcDbLine
 10
412.5
 20
430.0
 30
0.0
 11
412.5
 21
430.0
 31
0.0
  0
LINE
  5
1968
330
18A0
100
AcDbEntity
  8
0
 62
     0
380
     1
100
AcDbLine
 10
415.0
 20
430.0
 30
0.0
 11
415.0
 21
430.0
 31
0.0
  0
LINE
  5
1969
330
18A0
100
AcDbEntity
  8
0
 62
     0
380
     1
100
AcDbLine
 10
417.4999999999999
 20
430.0
 30
0.0
 11
417.4999999999999
 21
430.0
 31
0.0
  0
LINE
  5
196A
330
18A0
100
AcDbEntity
  8
0
 62
     0
380
     1
100
AcDbLine
 10
420.0
 20
430.0
 30
0.0
 11
420.0
 21
430.0
 31
0.0
  0
LINE
  5
196B
330
18A0
100
AcDbEntity
  8
0
 62
     0
380
     1
100
AcDbLine
 10
422.4999999999999
 20
430.0
 30
0.0
 11
422.4999999999999
 21
430.0
 31
0.0
  0
ENDBLK
  5
196D
330
18A0
100
AcDbEntity
  8
0
100
AcDbBlockEnd
  0
BLOCK
  5
20B1
330
20A6
100
AcDbEntity
  8
0
 48
5.0
100
AcDbBlockBegin
  2
*D4
 70
     1
 10
0.0
 20
0.0
 30
0.0
  3
*D4
  1

  0
LINE
  5
452A
330
20A6
100
AcDbEntity
  8
TXT-D
 62
     0
440
 16777216
 48
5.0
370
    -2
100
AcDbLine
 10
528.1232354318652
 20
753.367456779823
 30
0.0
 11
528.1232354318652
 21
802.6763294969715
 31
0.0
  0
LINE
  5
452B
330
20A6
100
AcDbEntity
  8
TXT-D
 62
     0
440
 16777216
 48
5.0
370
    -2
100
AcDbLine
 10
567.4922958362141
 20
756.9882886762098
 30
0.0
 11
567.4922958362141
 21
802.6763294969715
 31
0.0
  0
LINE
  5
452C
330
20A6
100
AcDbEntity
  8
TXT-D
 62
     0
440
 16777216
 48
5.0
370
    -2
100
AcDbLine
 10
510.6232354318652
 20
796.4263294969714
 30
0.0
 11
493.1232354318653
 21
796.4263294969714
 31
0.0
  0
LINE
  5
452D
330
20A6
100
AcDbEntity
  8
TXT-D
 62
     0
440
 16777216
 48
5.0
370
    -2
100
AcDbLine
 10
584.9922958362141
 20
796.4263294969714
 30
0.0
 11
602.492295836214
 21
796.4263294969714
 31
0.0
  0
SOLID
  5
452E
330
20A6
100
AcDbEntity
  8
TXT-D
 62
     0
440
 16777216
 48
5.0
100
AcDbTrace
 10
510.6232354318652
 20
799.3429961636381
 30
0.0
 11
510.6232354318652
 21
793.5096628303048
 31
0.0
 12
528.1232354318652
 22
796.4263294969714
 32
0.0
 13
528.1232354318652
 23
796.4263294969714
 33
0.0
  0
SOLID
  5
452F
330
20A6
100
AcDbEntity
  8
TXT-D
 62
     0
440
 16777216
 48
5.0
100
AcDbTrace
 10
584.9922958362141
 20
799.3429961636381
 30
0.0
 11
584.9922958362141
 21
793.5096628303048
 31
0.0
 12
567.4922958362141
 22
796.4263294969714
 32
0.0
 13
567.4922958362141
 23
796.4263294969714
 33
0.0
  0
MTEXT
  5
4530
330
20A6
100
AcDbEntity
  8
TXT-D
 62
     2
440
 16777216
 48
5.0
100
AcDbMText
 10
547.8077656340397
 20
806.5561043946523
 30
0.0
 40
14.0
 41
0.0
 71
     5
 72
     1
  1
\A1;   
  7
ROMANS
 73
     1
 44
1.0
  0
POINT
  5
4531
330
20A6
100
AcDbEntity
  8
DEFPOINTS
 62
     0
440
 16777216
 48
5.0
100
AcDbPoint
 10
528.1232354318652
 20
753.367456779823
 30
0.0
  0
POINT
  5
4532
330
20A6
100
AcDbEntity
  8
DEFPOINTS
 62
     0
440
 16777216
 48
5.0
100
AcDbPoint
 10
567.4922958362141
 20
756.9882886762098
 30
0.0
  0
POINT
  5
4533
330
20A6
100
AcDbEntity
  8
DEFPOINTS
 62
     0
440
 16777216
 48
5.0
100
AcDbPoint
 10
567.4922958362141
 20
796.4263294969714
 30
0.0
  0
ENDBLK
  5
20B2
330
20A6
100
AcDbEntity
  8
0
 48
5.0
100
AcDbBlockEnd
  0
BLOCK
  5
2FE9
330
2FE7
100
AcDbEntity
  8
0
 48
5.0
100
AcDbBlockBegin
  2
DAEMM
 70
     0
 10
0.0
 20
0.0
 30
0.0
  3
DAEMM
  1

  0
LWPOLYLINE
  5
2FE8
330
2FE7
100
AcDbEntity
  8
INSULATION
100
AcDbPolyline
 90
        6
 70
     0
 43
0.0
 10
0.0
 20
0.0
 42
0.5249926553343702
 10
1.869693845669928
 20
2.710102051443413
 10
0.1303061543300714
 20
7.289897948556586
 42
-1.449489742783175
 10
3.869693845669928
 20
7.289897948556586
 10
2.130306154330071
 20
2.710102051443413
 42
0.5249926553343702
 10
4.0
 20
0.0
  0
ENDBLK
  5
2FEA
330
2FE7
100
AcDbEntity
  8
0
 48
5.0
100
AcDbBlockEnd
  0
BLOCK
  5
3997
330
3974
100
AcDbEntity
  8
0
 62
     6
 48
10.0
100
AcDbBlockBegin
  2
e140
 70
     0
 10
0.0
 20
0.0
 30
0.0
  3
e140
  1

  0
LINE
  5
3975
330
3974
100
AcDbEntity
  8
0
 62
     3
100
AcDbLine
 10
1.761882177941579
 20
146.0000000000004
 30
0.0
 11
25.48733180248865
 21
11.0
 31
0.0
  0
LINE
  5
3976
330
3974
100
AcDbEntity
  8
0
 62
     3
100
AcDbLine
 10
-1.761882177942503
 20
146.0000000000001
 30
0.0
 11
-25.48733180248864
 21
11.0
 31
0.0
  0
LINE
  5
3977
330
3974
100
AcDbEntity
  8
0
 62
     3
100
AcDbLine
 10
-4.705591908087658
 20
12.70737123184409
 30
0.0
 11
-2.000000000000454
 21
29.0
 31
0.0
  0
LINE
  5
3978
330
3974
100
AcDbEntity
  8
0
 62
     3
100
AcDbLine
 10
4.705591908087637
 20
12.70737123184401
 30
0.0
 11
1.999999999999545
 21
29.0
 31
0.0
  0
LINE
  5
3979
330
3974
100
AcDbEntity
  8
0
 62
     4
100
AcDbLine
 10
-21.99999999999864
 20
18.45272980605568
 30
0.0
 11
-21.99999999999973
 21
-19.91791965098093
 31
0.0
  0
LINE
  5
397A
330
3974
100
AcDbEntity
  8
0
 62
     4
100
AcDbLine
 10
21.99999999999954
 20
18.45272980605341
 30
0.0
 11
21.99999999999954
 21
-19.91791965098093
 31
0.0
  0
LINE
  5
397B
330
3974
100
AcDbEntity
  8
0
 62
     3
100
AcDbLine
 10
-32.50000000000046
 20
0.0
 30
0.0
 11
32.50000000000046
 21
0.0
 31
0.0
  0
LINE
  5
397C
330
3974
100
AcDbEntity
  8
0
 62
     3
100
AcDbLine
 10
-6.684068191505676
 20
10.99999999999997
 30
0.0
 11
-32.00000000000045
 21
11.0
 31
0.0
  0
LINE
  5
397D
330
3974
100
AcDbEntity
  8
0
 62
     3
100
AcDbLine
 10
-32.50000000000046
 20
10.5
 30
0.0
 11
-32.50000000000046
 21
0.0
 31
0.0
  0
ARC
  5
397E
330
3974
100
AcDbEntity
  8
0
 62
     3
100
AcDbCircle
 10
-32.00000000000045
 20
10.5
 30
0.0
 40
0.5
100
AcDbArc
 50
90.0
 51
180.0
  0
LINE
  5
397F
330
3974
100
AcDbEntity
  8
0
 62
     3
100
AcDbLine
 10
6.684068191505641
 20
10.99999999999997
 30
0.0
 11
32.00000000000045
 21
11.0
 31
0.0
  0
ARC
  5
3980
330
3974
100
AcDbEntity
  8
0
 62
     3
100
AcDbCircle
 10
-6.684068191505676
 20
12.99999999999997
 30
0.0
 40
2.0
100
AcDbArc
 50
270.0
 51
351.5866003291716
  0
ARC
  5
3981
330
3974
100
AcDbEntity
  8
0
 62
     3
100
AcDbCircle
 10
6.684068191505641
 20
12.99999999999997
 30
0.0
 40
2.0
100
AcDbArc
 50
188.4133996708317
 51
270.0
  0
LINE
  5
3982
330
3974
100
AcDbEntity
  8
0
 62
     3
100
AcDbLine
 10
32.50000000000046
 20
10.5
 30
0.0
 11
32.50000000000046
 21
0.0
 31
0.0
  0
ARC
  5
3983
330
3974
100
AcDbEntity
  8
0
 62
     3
100
AcDbCircle
 10
32.00000000000045
 20
10.5
 30
0.0
 40
0.5
100
AcDbArc
 50
0.0
 51
90.0
  0
LINE
  5
3984
330
3974
100
AcDbEntity
  8
0
 62
     3
100
AcDbLine
 10
1.761882177941579
 20
146.0000000000004
 30
0.0
 11
1.999999999999545
 21
29.0
 31
0.0
  0
LINE
  5
3985
330
3974
100
AcDbEntity
  8
0
 62
     3
100
AcDbLine
 10
-1.761882177942503
 20
146.0000000000001
 30
0.0
 11
-2.000000000000454
 21
29.0
 31
0.0
  0
ARC
  5
3986
330
3974
100
AcDbEntity
  8
0
 62
     3
100
AcDbCircle
 10
-2.549919279120675
 20
189.2
 30
0.0
 40
0.8
100
AcDbArc
 50
359.9768564758476
 51
90.0
  0
ARC
  5
3987
330
3974
100
AcDbEntity
  8
0
 62
     3
100
AcDbCircle
 10
2.54991927911977
 20
189.2
 30
0.0
 40
0.8
100
AcDbArc
 50
90.0
 51
180.0231435241524
  0
LINE
  5
3988
330
3974
100
AcDbEntity
  8
0
 62
     3
100
AcDbLine
 10
1.749919344383773
 20
189.1996768554512
 30
0.0
 11
1.761882177941579
 21
146.0000000000004
 31
0.0
  0
LINE
  5
3989
330
3974
100
AcDbEntity
  8
0
 62
     3
100
AcDbLine
 10
-1.749919344384679
 20
189.1996768554512
 30
0.0
 11
-1.761882177942503
 21
146.0000000000001
 31
0.0
  0
ARC
  5
398A
330
3974
100
AcDbEntity
  8
0
 62
     3
100
AcDbCircle
 10
-0.0000000000004547
 20
198.0
 30
0.0
 40
3.0
100
AcDbArc
 50
0.0
 51
180.0
  0
LINE
  5
398B
330
3974
100
AcDbEntity
  8
0
 62
     3
100
AcDbLine
 10
-2.549919279120675
 20
190.0
 30
0.0
 11
-6.000000000000454
 21
190.0
 31
0.0
  0
LINE
  5
398C
330
3974
100
AcDbEntity
  8
0
 62
     3
100
AcDbLine
 10
-5.597271020094954
 20
193.5344394073002
 30
0.0
 11
-3.100682244976724
 21
196.847524613036
 31
0.0
  0
ARC
  5
398D
330
3974
100
AcDbEntity
  8
0
 62
     3
100
AcDbCircle
 10
-4.000000000000451
 20
192.330809360996
 30
0.0
 40
2.0
100
AcDbArc
 50
142.9999999999953
 51
180.0
  0
LINE
  5
398E
330
3974
100
AcDbEntity
  8
0
 62
     3
100
AcDbLine
 10
-6.000000000000454
 20
190.0
 30
0.0
 11
-6.000000000000451
 21
192.330809360996
 31
0.0
  0
LINE
  5
398F
330
3974
100
AcDbEntity
  8
0
 62
     3
100
AcDbLine
 10
-3.000000000000454
 20
197.1484321246121
 30
0.0
 11
-3.000000000000454
 21
198.0
 31
0.0
  0
ARC
  5
3990
330
3974
100
AcDbEntity
  8
0
 62
     3
100
AcDbCircle
 10
-3.500000000000454
 20
197.1484321246121
 30
0.0
 40
0.5
100
AcDbArc
 50
322.9999999999953
 51
0.0000000000032569
  0
ARC
  5
3991
330
3974
100
AcDbEntity
  8
0
 62
     3
100
AcDbCircle
 10
3.999999999999545
 20
192.330809360996
 30
0.0
 40
2.0
100
AcDbArc
 50
0.0
 51
37.00000000000466
  0
LINE
  5
3992
330
3974
100
AcDbEntity
  8
0
 62
     3
100
AcDbLine
 10
2.54991927911977
 20
190.0
 30
0.0
 11
5.999999999999545
 21
190.0
 31
0.0
  0
LINE
  5
3993
330
3974
100
AcDbEntity
  8
0
 62
     3
100
AcDbLine
 10
5.597271020094048
 20
193.5344394073003
 30
0.0
 11
3.100682244975814
 21
196.847524613036
 31
0.0
  0
ARC
  5
3994
330
3974
100
AcDbEntity
  8
0
 62
     3
100
AcDbCircle
 10
3.499999999999545
 20
197.1484321246121
 30
0.0
 40
0.5
100
AcDbArc
 50
179.9999999999967
 51
217.0000000000047
  0
LINE
  5
3995
330
3974
100
AcDbEntity
  8
0
 62
     3
100
AcDbLine
 10
2.999999999999545
 20
197.1484321246121
 30
0.0
 11
2.999999999999545
 21
198.0
 31
0.0
  0
LINE
  5
3996
330
3974
100
AcDbEntity
  8
0
 62
     3
100
AcDbLine
 10
5.999999999999545
 20
190.0
 30
0.0
 11
5.999999999999545
 21
192.330809360996
 31
0.0
  0
ENDBLK
  5
3998
330
3974
100
AcDbEntity
  8
0
 62
     6
 48
10.0
100
AcDbBlockEnd
  0
ENDSEC
  0
SECTION
  2
ENTITIES
  0
LINE
  5
1D57
330
18
100
AcDbEntity
  8
V5
100
AcDbLine
 10
336.3672709515962
 20
523.1354894551286
 30
0.0
 11
856.6374552018205
 21
523.1354894551286
 31
0.0
  0
LINE
  5
1D5D
330
18
100
AcDbEntity
  8
V5
100
AcDbLine
 10
336.3672709515962
 20
413.1354894551289
 30
0.0
 11
856.6374552018205
 21
413.1354894551286
 31
0.0
  0
INSERT
  5
1D60
330
18
100
AcDbEntity
  8
V25
100
AcDbBlockReference
  2
HALFEN
 10
426.2285818923796
 20
408.180772235006
 30
0.0
  0
LINE
  5
1D61
330
18
100
AcDbEntity
  8
ACHS
 62
     3
 48
3.5
100
AcDbLine
 10
856.6374552018205
 20
695.1176506899285
 30
0.0
 11
856.6374552018203
 21
400.0
 31
0.0
  0
LINE
  5
1D62
330
18
100
AcDbEntity
  8
V5
100
AcDbLine
 10
336.3672709515962
 20
413.1354894551289
 30
0.0
 11
336.3672709515962
 21
523.1354894551286
 31
0.0
  0
LINE
  5
1D66
330
18
100
AcDbEntity
  8
V5
100
AcDbLine
 10
350.1743183264886
 20
803.4142557378167
 30
0.0
 11
380.1743183264883
 21
803.4142557378167
 31
0.0
  0
LINE
  5
1D67
330
18
100
AcDbEntity
  8
V5
100
AcDbLine
 10
350.1743183264882
 20
1222.506472809828
 30
0.0
 11
380.1743183264881
 21
1222.506472809828
 31
0.0
  0
LWPOLYLINE
  5
1D68
330
18
100
AcDbEntity
  8
V5
100
AcDbPolyline
 90
        4
 70
     0
 43
2.0
 10
325.9903558566807
 20
1161.917904157515
 10
325.9903558566807
 20
1122.210922798398
 10
346.2360809549969
 20
1122.210922798398
 10
346.2360809549969
 20
1082.11465730831
  0
LINE
  5
1D69
330
18
100
AcDbEntity
  8
V25
100
AcDbLine
 10
286.7951099135863
 20
1144.010834132816
 30
0.0
 11
332.9984914676362
 21
1144.010834132815
 31
0.0
  0
LINE
  5
1D6A
330
18
100
AcDbEntity
  8
V25
100
AcDbLine
 10
339.8354566144348
 20
1101.436840592737
 30
0.0
 11
355.3492732013148
 21
1101.436840592737
 31
0.0
  0
LINE
  5
1D6B
102
{ACAD_REACTORS
330
2E9F
102
}
330
18
100
AcDbEntity
  8
ACHS
 62
     3
 48
3.5
100
AcDbLine
 10
154.8326226663526
 20
116.2971790682982
 30
0.0
 11
339.023552288522
 21
116.2971790682982
 31
0.0
  0
LINE
  5
1E9C
330
18
100
AcDbEntity
  8
V25
100
AcDbLine
 10
369.8283063454277
 20
528.848561295362
 30
0.0
 11
369.8283063454277
 21
512.3357575629632
 31
0.0
  0
POINT
  5
1E9D
330
18
100
AcDbEntity
  8
DEFPOINTS
  6
ByBlock
 62
     0
380
     1
100
AcDbPoint
 10
321.2547767781849
 20
841.5934309488971
 30
0.0
  0
LINE
  5
1E9E
330
18
100
AcDbEntity
  8
V5
100
AcDbLine
 10
380.1743183264883
 20
803.4142557378167
 30
0.0
 11
380.1743183264881
 21
1222.506472809828
 31
0.0
  0
LINE
  5
1EA1
330
18
100
AcDbEntity
  8
V5
100
AcDbLine
 10
350.1743183264886
 20
803.4142557378167
 30
0.0
 11
350.1743183264882
 21
1222.506472809828
 31
0.0
  0
TEXT
  5
1EA3
330
18
100
AcDbEntity
  8
TXT-D
 62
     7
100
AcDbText
 10
453.243745220377
 20
1046.149434607268
 30
0.0
 40
14.0
  1
trapézový plech
  7
ROMANS
100
AcDbText
  0
TEXT
  5
1EA4
330
18
100
AcDbEntity
  8
TXT-D
 62
     7
100
AcDbText
 10
454.4512250993456
 20
1081.753297711487
 30
0.0
 40
14.0
  1
Z-profil
  7
ROMANS
100
AcDbText
  0
TEXT
  5
1EA5
330
18
100
AcDbEntity
  8
TXT-D
 62
     7
100
AcDbText
 10
454.0489352692953
 20
1225.250310525774
 30
0.0
 40
14.0
  1
dřevěný nosník
  7
ROMANS
100
AcDbText
  0
TEXT
  5
1EA6
330
18
100
AcDbEntity
  8
TXT-D
 62
     7
100
AcDbText
 10
453.4674527220555
 20
1262.262438710874
 30
0.0
 40
14.0
  1
výztužné oplechování
  7
ROMANS
100
AcDbText
  0
LINE
  5
1EA7
330
18
100
AcDbEntity
  8
TXT-D
100
AcDbLine
 10
448.4518442080035
 20
1088.240948721737
 30
0.0
 11
346.8942345124232
 21
1088.240948721737
 31
0.0
  0
LINE
  5
1EA8
330
18
100
AcDbEntity
  8
TXT-D
100
AcDbLine
 10
448.4518442080035
 20
1052.240948721737
 30
0.0
 11
365.7142857142857
 21
1052.240948721737
 31
0.0
  0
LWPOLYLINE
  5
1EAB
330
18
100
AcDbEntity
  8
V5
100
AcDbPolyline
 90
        4
 70
     1
 43
0.0
 10
326.3672709515962
 20
407.9959994933395
 10
326.3672709515956
 20
137.6250840910861
 10
526.3672709515956
 20
137.6250840910861
 10
526.3672709515961
 20
407.9959994933394
  0
INSERT
  5
1EAC
330
18
100
AcDbEntity
  8
V25
100
AcDbBlockReference
  2
HOLZ
 10
171.254776778185
 20
1211.670730468849
 30
0.0
  0
LINE
  5
1EAE
330
18
100
AcDbEntity
  8
TXT-D
100
AcDbLine
 10
722.4651550774405
 20
274.6232265141407
 30
0.0
 11
625.9730033745779
 21
274.6232265141407
 31
0.0
  0
LINE
  5
1EAF
330
18
100
AcDbEntity
  8
TXT-D
100
AcDbLine
 10
722.4651550774405
 20
310.6232265141407
 30
0.0
 11
666.8533392485752
 21
310.6232265141407
 31
0.0
  0
TEXT
  5
1EB0
330
18
100
AcDbEntity
  8
TXT-D
 62
     7
100
AcDbText
 10
728.4645359687825
 20
304.1355755038904
 30
0.0
 40
14.0
  1
parotěsná vrstva
  7
ROMANS
100
AcDbText
  0
TEXT
  5
1EB1
330
18
100
AcDbEntity
  8
TXT-D
 62
     7
100
AcDbText
 10
731.0747596266865
 20
268.5317123996715
 30
0.0
 40
14.0
  1
trapézový plech
  7
ROMANS
100
AcDbText
  0
LINE
  5
1EB2
330
18
100
AcDbEntity
  8
TXT-D
100
AcDbLine
 10
722.4651550774405
 20
351.1946550855691
 30
0.0
 11
706.2051894669735
 21
351.1946550855691
 31
0.0
  0
TEXT
  5
1EB3
330
18
100
AcDbEntity
  8
TXT-D
 62
     7
100
AcDbText
 10
728.3196135569986
 20
342.8349145758482
 30
0.0
 40
14.0
  1
minerální tepelná izolace
  7
ROMANS
100
AcDbText
  0
LINE
  5
1EB4
330
18
100
AcDbEntity
  8
TXT-D
100
AcDbLine
 10
805.0181048279982
 20
818.02093240409
 30
0.0
 11
756.2781842364143
 21
818.02093240409
 31
0.0
  0
LINE
  5
1EB5
330
18
100
AcDbEntity
  8
TXT-D
100
AcDbLine
 10
514.7873683794878
 20
894.4135034137413
 30
0.0
 11
468.8248271291668
 21
894.4135034137399
 31
0.0
  0
LINE
  5
1EB6
330
18
100
AcDbEntity
  8
TXT-D
100
AcDbLine
 10
514.7873683794878
 20
933.0945923115439
 30
0.0
 11
439.6123159023726
 21
933.0945923115439
 31
0.0
  0
TEXT
  5
1EB7
330
18
100
AcDbEntity
  8
TXT-D
 62
     7
100
AcDbText
 10
519.5792693918613
 20
927.0030781970747
 30
0.0
 40
14.0
  1
štítové oplechování
  7
ROMANS
100
AcDbText
  0
LINE
  5
1EB8
330
18
100
AcDbEntity
  8
TXT-D
100
AcDbLine
 10
448.4518442080035
 20
1231.009320441639
 30
0.0
 11
300.2685274805764
 21
1231.009320441639
 31
0.0
  0
LINE
  5
1EB9
330
18
100
AcDbEntity
  8
TXT-D
100
AcDbLine
 10
448.4518442080035
 20
1267.986193502079
 30
0.0
 11
370.5302534857561
 21
1267.986193502078
 31
0.0
  0
LINE
  5
1EBA
330
18
100
AcDbEntity
  8
V25
100
AcDbLine
 10
204.1455594295022
 20
1233.210870757801
 30
0.0
 11
204.1455594295022
 21
1259.584400785039
 31
0.0
  0
TEXT
  5
1EBB
330
18
100
AcDbEntity
  8
TXT-D
 62
     7
100
AcDbText
 10
453.4674527220555
 20
1299.521194437193
 30
0.0
 40
14.0
  1
oplechování atiky
  7
ROMANS
100
AcDbText
  0
LINE
  5
1EBC
330
18
100
AcDbEntity
  8
TXT-D
100
AcDbLine
 10
448.4518442080035
 20
1304.96306656252
 30
0.0
 11
250.0294730600534
 21
1304.963066562513
 31
0.0
  0
LINE
  5
1EBE
330
18
100
AcDbEntity
  8
TXT-D
100
AcDbLine
 10
723.8937265060119
 20
239.3143114008812
 30
0.0
 11
586.383533453667
 21
239.3143114008812
 31
0.0
  0
TEXT
  5
1EBF
330
18
100
AcDbEntity
  8
TXT-D
 62
     7
100
AcDbText
 10
729.74818498557
 20
230.9545708911601
 30
0.0
 40
14.0
  1
tvrdá tepelná izolace
  7
ROMANS
100
AcDbText
  0
LINE
  5
1EC0
330
18
100
AcDbEntity
  8
TXT-D
100
AcDbLine
 10
439.6123159023726
 20
759.9036563327991
 30
0.0
 11
439.6123159023726
 21
933.0945923115439
 31
0.0
  0
LINE
  5
1EC1
330
18
100
AcDbEntity
  8
TXT-D
100
AcDbLine
 10
756.2563348009194
 20
675.5668524479205
 30
0.0
 11
756.2781842364143
 21
818.02093240409
 31
0.0
  0
INSERT
  5
1EC2
330
18
100
AcDbEntity
  8
V5
100
AcDbBlockReference
  2
OKAPPE
 10
475.7101646099904
 20
674.6973452093189
 30
0.0
 41
-1.0
  0
LWPOLYLINE
  5
1EC3
330
18
100
AcDbEntity
  8
V5
100
AcDbPolyline
 90
        4
 70
     0
 10
498.7042041265775
 20
702.4526212735252
 40
1.5
 41
1.5
 10
498.7042041265775
 20
741.4526212735252
 40
2.0
 41
2.0
 10
473.2042041265775
 20
741.4526212735252
 40
1.5
 41
1.5
 10
473.2042041265775
 20
722.4526212735252
 40
1.5
 41
1.5
  0
TEXT
  5
1EC4
330
18
100
AcDbEntity
  8
TXT-D
 62
     7
100
AcDbText
 10
519.982193172073
 20
889.2018687799721
 30
0.0
 40
14.0
  1
příchyt ve štítu
  7
ROMANS
100
AcDbText
  0
TEXT
  5
1EC5
330
18
100
AcDbEntity
  8
TXT-D
 62
     7
100
AcDbText
 10
520.5636757193128
 20
851.6343140500852
 30
0.0
 40
14.0
  1
výztužný U profil
  7
ROMANS
100
AcDbText
  0
LINE
  5
1EC6
330
18
100
AcDbEntity
  8
TXT-D
100
AcDbLine
 10
468.8248271291668
 20
746.8344646030338
 30
0.0
 11
468.8248271291668
 21
894.4135034137399
 31
0.0
  0
LINE
  5
1EC7
330
18
100
AcDbEntity
  8
TXT-D
100
AcDbLine
 10
495.6668061841106
 20
742.7730388371201
 30
0.0
 11
495.6668061841106
 21
780.9157903232259
 31
0.0
  0
TEXT
  5
1EC8
330
18
100
AcDbEntity
  8
TXT-D
 62
     7
100
AcDbText
 10
814.5544043779834
 20
772.3489097583817
 30
0.0
 40
14.0
  1
poplastovaná klipsa*
  7
ROMANS
100
AcDbText
  0
TEXT
  5
1EC9
330
18
100
AcDbEntity
  8
TXT-D
 62
     7
100
AcDbText
 10
814.5559994085582
 20
746.4938991468984
 30
0.0
 40
14.0
  1
alternativa: Al klipsa
  7
ROMANS
100
AcDbText
  0
TEXT
  5
1ECA
330
18
100
AcDbEntity
  8
TXT-D
 62
     7
100
AcDbText
 10
814.0850167104034
 20
810.9998521996315
 30
0.0
 40
14.0
  1
Kalzip
  7
ROMANS
100
AcDbText
  0
LINE
  5
1ECB
330
18
100
AcDbEntity
  8
TXT-D
100
AcDbLine
 10
514.439525706176
 20
857.3454420233806
 30
0.0
 11
495.6668061841106
 21
857.3454420233804
 31
0.0
  0
LINE
  5
1ECC
330
18
100
AcDbEntity
  8
TXT-D
100
AcDbLine
 10
393.1022575666412
 20
556.875065971416
 30
0.0
 11
586.383533453667
 21
435.4556777639384
 31
0.0
  0
LINE
  5
1ECD
330
18
100
AcDbEntity
  8
TXT-D
100
AcDbLine
 10
586.383533453667
 20
435.4556777639384
 30
0.0
 11
586.383533453667
 21
239.3143114008812
 31
0.0
  0
LINE
  5
1ECE
330
18
100
AcDbEntity
  8
TXT-D
100
AcDbLine
 10
625.9730033745779
 20
470.1469315375033
 30
0.0
 11
625.9730033745779
 21
274.6232265141407
 31
0.0
  0
LINE
  5
1ECF
330
18
100
AcDbEntity
  8
TXT-D
100
AcDbLine
 10
666.8533392485752
 20
530.2995389704981
 30
0.0
 11
666.8533392485752
 21
310.6232265141407
 31
0.0
  0
LINE
  5
1ED0
330
18
100
AcDbEntity
  8
TXT-D
100
AcDbLine
 10
706.2051894669736
 20
565.5478794148071
 30
0.0
 11
706.2051894669735
 21
351.1946550855691
 31
0.0
  0
LINE
  5
1ED2
330
18
100
AcDbEntity
  8
V25
 62
     4
100
AcDbLine
 10
334.1886594251656
 20
137.6250840910861
 30
0.0
 11
526.3672709515961
 21
329.8036956175169
 31
0.0
  0
LINE
  5
1ED3
330
18
100
AcDbEntity
  8
V25
 62
     4
100
AcDbLine
 10
326.3672709515962
 20
200.5143737361716
 30
0.0
 11
526.3672709515961
 21
400.5143737361716
 31
0.0
  0
LINE
  5
1ED4
330
18
100
AcDbEntity
  8
V25
 62
     4
100
AcDbLine
 10
326.3672709515962
 20
271.2250518548263
 30
0.0
 11
422.6040469344799
 21
367.4618278377101
 31
0.0
  0
LINE
  5
1ED5
330
18
100
AcDbEntity
  8
V25
 62
     4
100
AcDbLine
 10
326.3672709515962
 20
341.9357299734811
 30
0.0
 11
392.4275404714546
 21
407.9959994933394
 31
0.0
  0
LINE
  5
1ED6
330
18
100
AcDbEntity
  8
V25
 62
     4
100
AcDbLine
 10
404.8993375438202
 20
137.6250840910861
 30
0.0
 11
526.3672709515961
 21
259.0930174988621
 31
0.0
  0
LINE
  5
1ED7
330
18
100
AcDbEntity
  8
V25
 62
     4
100
AcDbLine
 10
475.6100156624748
 20
137.6250840910861
 30
0.0
 11
526.3672709515961
 21
188.3823393802073
 31
0.0
  0
LINE
  5
1EDA
330
18
100
AcDbEntity
  8
V25
 62
     4
100
AcDbLine
 10
369.5439984251655
 20
137.6250840910861
 30
0.0
 11
382.03327864382
 21
150.1143643097406
 31
0.0
  0
LINE
  5
1EDB
330
18
100
AcDbEntity
  8
V25
 62
     4
100
AcDbLine
 10
390.8721134086517
 20
158.9531990745724
 30
0.0
 11
408.5497829383154
 21
176.6308686042362
 31
0.0
  0
LINE
  5
1EDC
330
18
100
AcDbEntity
  8
V25
 62
     4
100
AcDbLine
 10
417.3886177031473
 20
185.469703369068
 30
0.0
 11
435.066287232811
 21
203.1473728987318
 31
0.0
  0
LINE
  5
1EDD
330
18
100
AcDbEntity
  8
V25
 62
     4
100
AcDbLine
 10
443.9051219976428
 20
211.9862076635636
 30
0.0
 11
461.5827915273065
 21
229.6638771932273
 31
0.0
  0
LINE
  5
1EDE
330
18
100
AcDbEntity
  8
V25
 62
     4
100
AcDbLine
 10
470.4216262921384
 20
238.5027119580592
 30
0.0
 11
488.0992958218022
 21
256.1803814877229
 31
0.0
  0
LINE
  5
1EDF
330
18
100
AcDbEntity
  8
V25
 62
     4
100
AcDbLine
 10
496.938130586634
 20
265.0192162525548
 30
0.0
 11
514.6158001162977
 21
282.6968857822185
 31
0.0
  0
LINE
  5
1EE0
330
18
100
AcDbEntity
  8
V25
 62
     4
100
AcDbLine
 10
523.4546348811295
 20
291.5357205470503
 30
0.0
 11
526.3672709515962
 21
294.4483566175171
 31
0.0
  0
LINE
  5
1EE1
330
18
100
AcDbEntity
  8
V25
 62
     4
100
AcDbLine
 10
329.0002700548288
 20
167.7920338394042
 30
0.0
 11
346.6779395844925
 21
185.4697033690679
 31
0.0
  0
LINE
  5
1EE2
330
18
100
AcDbEntity
  8
V25
 62
     4
100
AcDbLine
 10
355.5167743493245
 20
194.3085381338999
 30
0.0
 11
373.1944438789882
 21
211.9862076635636
 31
0.0
  0
LINE
  5
1EE3
330
18
100
AcDbEntity
  8
V25
 62
     4
100
AcDbLine
 10
382.03327864382
 20
220.8250424283954
 30
0.0
 11
399.7109481734836
 21
238.5027119580591
 31
0.0
  0
LINE
  5
1EE4
330
18
100
AcDbEntity
  8
V25
 62
     4
100
AcDbLine
 10
408.5497829383156
 20
247.341546722891
 30
0.0
 11
426.2274524679793
 21
265.0192162525548
 31
0.0
  0
LINE
  5
1EE5
330
18
100
AcDbEntity
  8
V25
 62
     4
100
AcDbLine
 10
435.066287232811
 20
273.8580510173865
 30
0.0
 11
452.7439567624748
 21
291.5357205470503
 31
0.0
  0
LINE
  5
1EE6
330
18
100
AcDbEntity
  8
V25
 62
     4
100
AcDbLine
 10
461.5827915273067
 20
300.3745553118821
 30
0.0
 11
479.2604610569703
 21
318.0522248415458
 31
0.0
  0
LINE
  5
1EE7
330
18
100
AcDbEntity
  8
V25
 62
     4
100
AcDbLine
 10
488.0992958218023
 20
326.8910596063776
 30
0.0
 11
505.776965351466
 21
344.5687291360414
 31
0.0
  0
LINE
  5
1EE8
330
18
100
AcDbEntity
  8
V25
 62
     4
100
AcDbLine
 10
514.6158001162977
 20
353.4075639008733
 30
0.0
 11
526.3672709515965
 21
365.1590347361719
 31
0.0
  0
LINE
  5
1EE9
330
18
100
AcDbEntity
  8
V25
 62
     4
100
AcDbLine
 10
326.3672709515962
 20
235.8697128548263
 30
0.0
 11
337.8391048196605
 21
247.3415467228908
 31
0.0
  0
LINE
  5
1EEA
330
18
100
AcDbEntity
  8
V25
 62
     4
100
AcDbLine
 10
346.6779395844925
 20
256.1803814877227
 30
0.0
 11
364.3556091141562
 21
273.8580510173864
 31
0.0
  0
LINE
  5
1EEB
330
18
100
AcDbEntity
  8
V25
 62
     4
100
AcDbLine
 10
373.1944438789879
 20
282.6968857822182
 30
0.0
 11
390.8721134086517
 21
300.374555311882
 31
0.0
  0
LINE
  5
1EEC
330
18
100
AcDbEntity
  8
V25
 62
     4
100
AcDbLine
 10
399.7109481734836
 20
309.2133900767138
 30
0.0
 11
417.3886177031473
 21
326.8910596063776
 31
0.0
  0
LINE
  5
1EED
330
18
100
AcDbEntity
  8
V25
 62
     4
100
AcDbLine
 10
426.227452467979
 20
335.7298943712094
 30
0.0
 11
443.9051219976428
 21
353.4075639008731
 31
0.0
  0
LINE
  5
1EEE
330
18
100
AcDbEntity
  8
V25
 62
     4
100
AcDbLine
 10
452.7439567624748
 20
362.246398665705
 30
0.0
 11
470.4216262921384
 21
379.9240681953687
 31
0.0
  0
LINE
  5
1EEF
330
18
100
AcDbEntity
  8
V25
 62
     4
100
AcDbLine
 10
479.2604610569703
 20
388.7629029602006
 30
0.0
 11
496.938130586634
 21
406.4405724898643
 31
0.0
  0
LINE
  5
1EF0
330
18
100
AcDbEntity
  8
V25
 62
     4
100
AcDbLine
 10
326.3672709515962
 20
306.5803909734811
 30
0.0
 11
329.0002700548288
 21
309.2133900767137
 31
0.0
  0
LINE
  5
1EF1
330
18
100
AcDbEntity
  8
V25
 62
     4
100
AcDbLine
 10
337.8391048196605
 20
318.0522248415456
 30
0.0
 11
355.5167743493242
 21
335.7298943712093
 31
0.0
  0
LINE
  5
1EF2
330
18
100
AcDbEntity
  8
V25
 62
     4
100
AcDbLine
 10
364.3556091141562
 20
344.5687291360412
 30
0.0
 11
382.03327864382
 21
362.2463986657049
 31
0.0
  0
LINE
  5
1EF3
330
18
100
AcDbEntity
  8
V25
 62
     4
100
AcDbLine
 10
390.8721134086517
 20
371.0852334305367
 30
0.0
 11
403.2813671846073
 21
383.4944872064925
 31
0.0
  0
LINE
  5
1EF4
330
18
100
AcDbEntity
  8
V25
 62
     4
100
AcDbLine
 10
329.0002700548288
 20
379.9240681953685
 30
0.0
 11
346.6779395844925
 21
397.6017377250322
 31
0.0
  0
LINE
  5
1EF5
330
18
100
AcDbEntity
  8
V25
 62
     4
100
AcDbLine
 10
355.5167743493242
 20
406.440572489864
 30
0.0
 11
357.0722013527999
 21
407.9959994933395
 31
0.0
  0
LINE
  5
1EF7
330
18
100
AcDbEntity
  8
V25
 62
     4
100
AcDbLine
 10
440.2546765438201
 20
137.6250840910861
 30
0.0
 11
443.9051219976428
 21
141.2755295449087
 31
0.0
  0
LINE
  5
1EF8
330
18
100
AcDbEntity
  8
V25
 62
     4
100
AcDbLine
 10
452.7439567624745
 20
150.1143643097406
 30
0.0
 11
470.4216262921383
 21
167.7920338394043
 31
0.0
  0
LINE
  5
1EF9
330
18
100
AcDbEntity
  8
V25
 62
     4
100
AcDbLine
 10
479.2604610569702
 20
176.6308686042362
 30
0.0
 11
496.9381305866339
 21
194.3085381338999
 31
0.0
  0
LINE
  5
1EFA
330
18
100
AcDbEntity
  8
V25
 62
     4
100
AcDbLine
 10
505.7769653514657
 20
203.1473728987318
 30
0.0
 11
523.4546348811295
 21
220.8250424283955
 31
0.0
  0
LINE
  5
1EFC
330
18
100
AcDbEntity
  8
V25
 62
     4
100
AcDbLine
 10
514.6158001162976
 20
141.2755295449087
 30
0.0
 11
526.3672709515961
 21
153.0270003802074
 31
0.0
  0
LINE
  5
1EFD
330
18
100
AcDbEntity
  8
V25
 62
     4
100
AcDbLine
 10
456.8605201066672
 20
401.7183010098973
 30
0.0
 11
463.1382185901093
 21
407.9959994933394
 31
0.0
  0
LINE
  5
1EFE
330
18
100
AcDbEntity
  8
V25
100
AcDbLine
 10
426.2107934182644
 20
376.417382676434
 30
0.0
 11
426.2107934182644
 21
421.1827883214759
 31
0.0
  0
INSERT
  5
1EFF
330
18
100
AcDbEntity
  8
V25
100
AcDbBlockReference
  2
*X3
 10
31.42857142857137
 20
-45.71428571428572
 30
0.0
  0
LWPOLYLINE
  5
1F00
330
18
100
AcDbEntity
  8
V35
100
AcDbPolyline
 90
        2
 70
     1
 43
2.9
 10
624.423003374578
 20
470.1469315375033
 42
1.0
 10
627.5230033745779
 20
470.1469315375033
 42
1.0
  0
LINE
  5
1F0B
330
18
100
AcDbEntity
  8
ACHS
 48
3.0
100
AcDbLine
 10
246.2547767781849
 20
1136.853585678397
 30
0.0
 11
246.2547767781849
 21
1254.182429436973
 31
0.0
  0
LWPOLYLINE
  5
1F71
330
18
100
AcDbEntity
  8
V5
100
AcDbPolyline
 90
        3
 70
     0
 43
0.0
 10
396.4503998336321
 20
526.347611306973
 10
327.5360199450716
 20
526.347611306973
 10
327.5360199450716
 20
621.7087395104117
  0
ARC
  5
1F72
330
18
100
AcDbEntity
  8
ISOTRI46
100
AcDbCircle
 10
337.0260530867347
 20
655.0581373432314
 30
0.0
 40
3.0
100
AcDbArc
 50
270.0000370537325
 51
0.0000132755010465
  0
ARC
  5
1F74
330
18
100
AcDbEntity
  8
ISOTRI46
100
AcDbCircle
 10
343.0260530867345
 20
753.1958682675274
 30
0.0
 40
3.0
100
AcDbArc
 50
89.9999727148406
 51
179.9999311689215
  0
ARC
  5
1F75
330
18
100
AcDbEntity
  8
ISOTRI46
100
AcDbCircle
 10
343.0260530867345
 20
753.1958682675274
 30
0.0
 40
3.0
100
AcDbArc
 50
0.0000688310784947
 51
90.00002728515942
  0
ARC
  5
1F77
330
18
100
AcDbEntity
  8
ISOTRI46
100
AcDbCircle
 10
349.0260530867345
 20
655.0581373432314
 30
0.0
 40
3.0
100
AcDbArc
 50
179.999986724499
 51
269.9999629462675
  0
ARC
  5
1F78
330
18
100
AcDbEntity
  8
ISOTRI46
100
AcDbCircle
 10
361.0260492064763
 20
655.0581373432314
 30
0.0
 40
3.0
100
AcDbArc
 50
179.999986724499
 51
269.9999629462675
  0
ARC
  5
1F7A
330
18
100
AcDbEntity
  8
ISOTRI46
100
AcDbCircle
 10
355.0260492064764
 20
753.1958682675274
 30
0.0
 40
3.0
100
AcDbArc
 50
0.0000688310784947
 51
90.00002728515942
  0
ARC
  5
1F7B
330
18
100
AcDbEntity
  8
ISOTRI46
100
AcDbCircle
 10
355.0260492064764
 20
753.1958682675274
 30
0.0
 40
3.0
100
AcDbArc
 50
89.9999727148406
 51
179.9999311689215
  0
ARC
  5
1F7D
330
18
100
AcDbEntity
  8
ISOTRI46
100
AcDbCircle
 10
349.0260492064765
 20
655.0581373432314
 30
0.0
 40
3.0
100
AcDbArc
 50
270.0000370537325
 51
0.0000132755010465
  0
ARC
  5
1F7E
330
18
100
AcDbEntity
  8
ISOTRI46
100
AcDbCircle
 10
373.0260453262182
 20
655.0581373432314
 30
0.0
 40
3.0
100
AcDbArc
 50
179.999986724499
 51
269.9999629462675
  0
ARC
  5
1F80
330
18
100
AcDbEntity
  8
ISOTRI46
100
AcDbCircle
 10
367.0260453262183
 20
753.1958682675274
 30
0.0
 40
3.0
100
AcDbArc
 50
0.0000688310784947
 51
90.00002728515942
  0
ARC
  5
1F81
330
18
100
AcDbEntity
  8
ISOTRI46
100
AcDbCircle
 10
367.0260453262183
 20
753.1958682675274
 30
0.0
 40
3.0
100
AcDbArc
 50
89.9999727148406
 51
179.9999311689215
  0
ARC
  5
1F83
330
18
100
AcDbEntity
  8
ISOTRI46
100
AcDbCircle
 10
361.0260453262184
 20
655.0581373432314
 30
0.0
 40
3.0
100
AcDbArc
 50
270.0000370537325
 51
0.0000132755010465
  0
ARC
  5
1F84
330
18
100
AcDbEntity
  8
ISOTRI46
100
AcDbCircle
 10
385.0260414459601
 20
655.0581373432314
 30
0.0
 40
3.0
100
AcDbArc
 50
179.999986724499
 51
269.9999629462675
  0
ARC
  5
1F86
330
18
100
AcDbEntity
  8
ISOTRI46
100
AcDbCircle
 10
379.0260414459601
 20
753.1958682675274
 30
0.0
 40
3.0
100
AcDbArc
 50
0.0000688310784947
 51
90.00002728515942
  0
ARC
  5
1F87
330
18
100
AcDbEntity
  8
ISOTRI46
100
AcDbCircle
 10
379.0260414459601
 20
753.1958682675274
 30
0.0
 40
3.0
100
AcDbArc
 50
89.9999727148406
 51
179.9999311689215
  0
ARC
  5
1F89
330
18
100
AcDbEntity
  8
ISOTRI46
100
AcDbCircle
 10
373.0260414459603
 20
655.0581373432314
 30
0.0
 40
3.0
100
AcDbArc
 50
270.0000370537325
 51
0.0000132755010465
  0
ARC
  5
1F8A
330
18
100
AcDbEntity
  8
ISOTRI46
100
AcDbCircle
 10
397.0260375657019
 20
655.0581373432314
 30
0.0
 40
3.0
100
AcDbArc
 50
179.999986724499
 51
269.9999629462675
  0
ARC
  5
1F8C
330
18
100
AcDbEntity
  8
ISOTRI46
100
AcDbCircle
 10
391.0260375657019
 20
753.1958682675274
 30
0.0
 40
3.0
100
AcDbArc
 50
0.0000688310784947
 51
90.00002728515942
  0
ARC
  5
1F8D
330
18
100
AcDbEntity
  8
ISOTRI46
100
AcDbCircle
 10
391.0260375657019
 20
753.1958682675274
 30
0.0
 40
3.0
100
AcDbArc
 50
89.9999727148406
 51
179.9999311689215
  0
ARC
  5
1F8F
330
18
100
AcDbEntity
  8
ISOTRI46
100
AcDbCircle
 10
385.0260375657022
 20
655.0581373432314
 30
0.0
 40
3.0
100
AcDbArc
 50
270.0000370537325
 51
0.0000132755010465
  0
ARC
  5
1F90
330
18
100
AcDbEntity
  8
ISOTRI46
100
AcDbCircle
 10
409.0260336854438
 20
655.0581373432314
 30
0.0
 40
3.0
100
AcDbArc
 50
179.999986724499
 51
269.9999629462675
  0
ARC
  5
1F92
330
18
100
AcDbEntity
  8
ISOTRI46
100
AcDbCircle
 10
403.0260336854438
 20
753.1958682675274
 30
0.0
 40
3.0
100
AcDbArc
 50
0.0000688310784947
 51
90.00002728515942
  0
ARC
  5
1F93
330
18
100
AcDbEntity
  8
ISOTRI46
100
AcDbCircle
 10
403.0260336854438
 20
753.1958682675274
 30
0.0
 40
3.0
100
AcDbArc
 50
89.9999727148406
 51
179.9999311689215
  0
ARC
  5
1F95
330
18
100
AcDbEntity
  8
ISOTRI46
100
AcDbCircle
 10
397.026033685444
 20
655.0581373432314
 30
0.0
 40
3.0
100
AcDbArc
 50
270.0000370537325
 51
0.0000132755010465
  0
ARC
  5
1F96
330
18
100
AcDbEntity
  8
ISOTRI46
100
AcDbCircle
 10
421.0260298051856
 20
655.0581373432314
 30
0.0
 40
3.0
100
AcDbArc
 50
179.999986724499
 51
269.9999629462675
  0
ARC
  5
1F98
330
18
100
AcDbEntity
  8
ISOTRI46
100
AcDbCircle
 10
415.0260298051858
 20
753.1958682675274
 30
0.0
 40
3.0
100
AcDbArc
 50
0.0000688310784947
 51
90.00002728515942
  0
ARC
  5
1F99
330
18
100
AcDbEntity
  8
ISOTRI46
100
AcDbCircle
 10
415.0260298051858
 20
753.1958682675274
 30
0.0
 40
3.0
100
AcDbArc
 50
89.9999727148406
 51
179.9999311689215
  0
ARC
  5
1F9B
330
18
100
AcDbEntity
  8
ISOTRI46
100
AcDbCircle
 10
409.0260298051858
 20
655.0581373432314
 30
0.0
 40
3.0
100
AcDbArc
 50
270.0000370537325
 51
0.0000132755010465
  0
ARC
  5
1F9C
330
18
100
AcDbEntity
  8
ISOTRI46
100
AcDbCircle
 10
433.0260259249275
 20
655.0581373432314
 30
0.0
 40
3.0
100
AcDbArc
 50
179.999986724499
 51
269.9999629462675
  0
ARC
  5
1F9E
330
18
100
AcDbEntity
  8
ISOTRI46
100
AcDbCircle
 10
427.0260259249275
 20
753.1958682675274
 30
0.0
 40
3.0
100
AcDbArc
 50
0.0000688310784947
 51
90.00002728515942
  0
ARC
  5
1F9F
330
18
100
AcDbEntity
  8
ISOTRI46
100
AcDbCircle
 10
427.0260259249275
 20
753.1958682675274
 30
0.0
 40
3.0
100
AcDbArc
 50
89.9999727148406
 51
179.9999311689215
  0
ARC
  5
1FA1
330
18
100
AcDbEntity
  8
ISOTRI46
100
AcDbCircle
 10
421.0260259249277
 20
655.0581373432314
 30
0.0
 40
3.0
100
AcDbArc
 50
270.0000370537325
 51
0.0000132755010465
  0
ARC
  5
1FA2
330
18
100
AcDbEntity
  8
ISOTRI46
100
AcDbCircle
 10
445.0260220446693
 20
655.0581373432314
 30
0.0
 40
3.0
100
AcDbArc
 50
179.999986724499
 51
269.9999629462675
  0
ARC
  5
1FA4
330
18
100
AcDbEntity
  8
ISOTRI46
100
AcDbCircle
 10
439.0260220446694
 20
753.1958682675274
 30
0.0
 40
3.0
100
AcDbArc
 50
0.0000688310784947
 51
90.00002728515942
  0
ARC
  5
1FA5
330
18
100
AcDbEntity
  8
ISOTRI46
100
AcDbCircle
 10
439.0260220446694
 20
753.1958682675274
 30
0.0
 40
3.0
100
AcDbArc
 50
89.9999727148406
 51
179.9999311689215
  0
ARC
  5
1FA7
330
18
100
AcDbEntity
  8
ISOTRI46
100
AcDbCircle
 10
433.0260220446696
 20
655.0581373432314
 30
0.0
 40
3.0
100
AcDbArc
 50
270.0000370537325
 51
0.0000132755010465
  0
ARC
  5
1FAA
330
18
100
AcDbEntity
  8
ISOTRI46
100
AcDbCircle
 10
451.0260181644112
 20
753.1958682675274
 30
0.0
 40
3.0
100
AcDbArc
 50
0.0000688310784947
 51
90.00002728515942
  0
ARC
  5
1FAB
330
18
100
AcDbEntity
  8
ISOTRI46
100
AcDbCircle
 10
451.0260181644112
 20
753.1958682675274
 30
0.0
 40
3.0
100
AcDbArc
 50
89.9999727148406
 51
179.9999311689215
  0
ARC
  5
1FAD
330
18
100
AcDbEntity
  8
ISOTRI46
100
AcDbCircle
 10
445.0260181644114
 20
655.0581373432314
 30
0.0
 40
3.0
100
AcDbArc
 50
270.0000370537325
 51
0.0000132755010465
  0
LINE
  5
1FF0
330
18
100
AcDbEntity
  8
TXT-D
100
AcDbLine
 10
790.63776911607
 20
778.0718695951443
 30
0.0
 11
807.2855073011442
 21
778.0718695951443
 31
0.0
  0
LINE
  5
1FFA
330
18
100
AcDbEntity
  8
V25
100
AcDbLine
 10
292.4612734496344
 20
1233.210870757801
 30
0.0
 11
292.4612734496344
 21
1259.584400785039
 31
0.0
  0
LWPOLYLINE
  5
1FFB
330
18
100
AcDbEntity
  8
V5
100
AcDbPolyline
 90
        6
 70
     0
 43
2.0
 10
152.2626625762966
 20
1172.387703282112
 10
141.6560608584984
 20
1161.781101564314
 10
141.6560608584984
 20
1271.965085426733
 10
408.5053876683081
 20
1257.841840727049
 10
408.5053876683081
 20
1160.934286929642
 10
397.8987859505099
 20
1171.54088864744
  0
LWPOLYLINE
  5
1FFC
330
18
100
AcDbEntity
  8
V5
100
AcDbPolyline
 90
        8
 70
     0
 43
1.199999999999999
 10
145.7033423147687
 20
1170.770576588491
 10
145.7033423147687
 20
1267.664560714305
 10
184.3732220181477
 20
1265.617921960941
 10
194.7988768845754
 20
1255.192267094513
 10
306.4389916376731
 20
1255.192267094513
 10
317.9922197926304
 20
1258.546014286838
 10
405.2360266370438
 20
1253.928556010565
 10
405.2360266370437
 20
1169.923761953819
  0
LINE
  5
1FFD
330
18
100
AcDbEntity
  8
TXT-D
100
AcDbLine
 10
250.0294730600534
 20
1267.223096932758
 30
0.0
 11
250.0294730600534
 21
1304.963066562513
 31
0.0
  0
LINE
  5
1FFF
330
18
100
AcDbEntity
  8
TXT-D
100
AcDbLine
 10
370.5302534857559
 20
1255.447990850721
 30
0.0
 11
370.5302534857561
 21
1267.986193502078
 31
0.0
  0
LINE
  5
2001
330
18
100
AcDbEntity
  8
TXT-D
100
AcDbLine
 10
790.6377691160696
 20
728.1752148827527
 30
0.0
 11
790.63776911607
 21
778.0718695951443
 31
0.0
  0
LWPOLYLINE
  5
2085
330
18
100
AcDbEntity
  8
V5
100
AcDbPolyline
 90
        4
 70
     0
 43
2.0
 10
492.8547815595419
 20
704.1785786554187
 10
499.2826576564069
 20
696.5181342242289
 42
0.7002075382097122
 10
502.3732354318652
 20
697.6430125411802
 10
502.3732354318657
 20
753.367456779823
  0
LWPOLYLINE
  5
2086
330
18
100
AcDbEntity
  8
V5
100
AcDbPolyline
 90
        3
 70
     0
 43
2.0
 10
528.1232354318652
 20
753.367456779823
 10
460.7856620559966
 20
753.367456779823
 10
460.7856620559963
 20
745.6174567798229
  0
LINE
  5
2087
330
18
100
AcDbEntity
  8
V25
100
AcDbLine
 10
518.6151627452922
 20
765.1984594866758
 30
0.0
 11
518.6151627452922
 21
745.0351879954687
 31
0.0
  0
LINE
  5
2089
330
18
100
AcDbEntity
  8
TXT-D
100
AcDbLine
 10
531.0827952915174
 20
713.338160954964
 30
0.0
 11
503.9668474038261
 21
713.3381609549631
 31
0.0
  0
TEXT
  5
208A
330
18
100
AcDbEntity
  8
TXT-D
 62
     7
100
AcDbText
 10
536.2647443372383
 20
707.0778631187212
 30
0.0
 40
14.0
  1
toleranční T profil
  7
ROMANS
100
AcDbText
  0
DIMENSION
  5
208B
330
18
100
AcDbEntity
  8
TXT-D
100
AcDbDimension
  2
*D4
 10
567.4922958362141
 20
796.4263294969714
 30
0.0
 11
547.8077656340397
 21
806.5561043946523
 31
0.0
 70
    32
  1
   
 71
     5
 42
39.36906040434883
  3
18
100
AcDbAlignedDimension
 13
528.1232354318652
 23
753.367456779823
 33
0.0
 14
567.4922958362141
 24
756.9882886762098
 34
0.0
100
AcDbRotatedDimension
  0
TEXT
  5
208C
330
18
100
AcDbEntity
  8
TXT-D
 62
     2
100
AcDbText
 10
610.1483711956447
 20
771.7526254416805
 30
0.0
 40
14.0
  1

  7
ROMANS
100
AcDbText
  0
TEXT
  5
208D
330
18
100
AcDbEntity
  8
TXT-D
 62
     7
100
AcDbText
 10
610.1483711956447
 20
791.2864961102891
 30
0.0
 40
14.0
  1
tolerance
  7
ROMANS
100
AcDbText
  0
LINE
  5
20A1
330
18
100
AcDbEntity
  8
TXT-D
100
AcDbLine
 10
495.6668061841106
 20
806.4411600346426
 30
0.0
 11
495.6668061841106
 21
857.3454420233804
 31
0.0
  0
LWPOLYLINE
  5
2606
330
18
100
AcDbEntity
  8
SV35
  6
AUSGEZOGEN
 48
5.0
100
AcDbPolyline
 90
        4
 70
     1
 43
0.0
 10
326.780621214969
 20
561.5684449203463
 10
326.780621214969
 20
591.5684449203463
 10
321.780621214969
 20
591.5684449203463
 10
321.780621214969
 20
561.5684449203463
  0
HATCH
  5
2607
330
18
100
AcDbEntity
  8
V25
 48
5.0
100
AcDbHatch
 10
0.0
 20
0.0
 30
0.0
210
0.0
220
0.0
230
1.0
  2
ANSI37
 70
     0
 71
     0
 91
        1
 92
        7
 72
     0
 73
     1
 93
        4
 10
321.780621214969
 20
561.5684449203463
 10
326.7806212149692
 20
561.5684449203463
 10
326.7806212149692
 20
591.5684449203463
 10
321.780621214969
 20
591.5684449203463
 97
        0
 75
     0
 76
     1
 52
90.0
 41
1.0
 77
     0
 78
     2
 53
135.0
 43
978.9633862018321
 44
77.25242095235239
 45
-2.245064030267288
 46
-2.245064030267287
 79
     0
 53
225.0
 43
978.9633862018321
 44
77.25242095235239
 45
2.245064030267287
 46
-2.245064030267288
 79
     0
 47
0.1149827854136383
 98
        1
 10
323.4501092325838
 20
579.8442085747072
  0
LINE
  5
263C
330
18
100
AcDbEntity
  8
TXT-D
100
AcDbLine
 10
723.8937265060119
 20
204.0053962876218
 30
0.0
 11
551.0746183404076
 21
204.0053962876218
 31
0.0
  0
TEXT
  5
263D
330
18
100
AcDbEntity
  8
TXT-D
 62
     7
100
AcDbText
 10
729.74818498557
 20
195.6456557779007
 30
0.0
 40
14.0
  1
těsnící pásek
  7
ROMANS
100
AcDbText
  0
LINE
  5
263E
330
18
100
AcDbEntity
  8
TXT-D
100
AcDbLine
 10
551.0746183404076
 20
419.1638952752025
 30
0.0
 11
551.0746183404076
 21
204.0053962876218
 31
0.0
  0
LINE
  5
2640
330
18
100
AcDbEntity
  8
TXT-D
100
AcDbLine
 10
323.404689363784
 20
562.1862514900868
 30
0.0
 11
551.0746183404076
 21
419.1638952752025
 31
0.0
  0
LWPOLYLINE
  5
29ED
330
18
100
AcDbEntity
  8
V25
  6
Continuous
100
AcDbPolyline
 90
        6
 70
   128
 43
0.0
 10
990.250318119588
 20
1000.893261544081
 10
779.6798576326331
 20
1000.893261544081
 42
-0.4142135623730951
 10
767.6798576326331
 20
1012.893261544081
 10
767.6798576326331
 20
1091.953224991753
 10
761.6672225841073
 20
1105.527621503577
 10
761.6672225841073
 20
1201.89523902553
  0
LWPOLYLINE
  5
29EE
330
18
100
AcDbEntity
  8
V25
  6
Continuous
100
AcDbPolyline
 90
        6
 70
   128
 43
0.0
 10
990.250318119588
 20
1004.893261544081
 10
779.6798576326331
 20
1004.893261544081
 42
-0.4142135623730951
 10
771.6798576326331
 20
1012.893261544081
 10
771.6798576326331
 20
1092.464234252743
 10
765.6672225841073
 20
1106.038630764567
 10
765.6672225841073
 20
1201.89523902553
  0
LWPOLYLINE
  5
29EF
330
18
100
AcDbEntity
  8
V5
  6
GESTRICHELT
 48
5.0
100
AcDbPolyline
 90
        6
 70
   128
 43
4.0
 10
990.250318119588
 20
1002.893261544081
 10
779.6798576326331
 20
1002.893261544081
 42
-0.4142135623730951
 10
769.679857632633
 20
1012.893261544081
 10
769.679857632633
 20
1092.208729622248
 10
763.6672225841073
 20
1105.783126134072
 10
763.6672225841073
 20
1201.89523902553
  0
LINE
  5
29F8
330
18
100
AcDbEntity
  8
TXT-D
  6
ByBlock
 62
     1
100
AcDbLine
 10
909.1533704796447
 20
1231.075265881983
 30
0.0
 11
831.3287521040191
 21
1231.19163945964
 31
0.0
  0
LINE
  5
29FC
330
18
100
AcDbEntity
  8
V5
100
AcDbLine
 10
763.5172435188561
 20
994.2740627287959
 30
0.0
 11
990.250318119588
 21
994.2740627287959
 31
0.0
  0
LWPOLYLINE
  5
2A01
330
18
100
AcDbEntity
  8
V5
100
AcDbPolyline
 90
        2
 70
     0
 43
0.0
 10
758.4047493454447
 20
1106.266144716065
 10
758.4047493454448
 20
977.1252945990276
  0
LWPOLYLINE
  5
2A02
330
18
100
AcDbEntity
  8
V5
100
AcDbPolyline
 90
        2
 70
     0
 43
0.0
 10
758.4047493454449
 20
1129.354650524821
 10
758.4047493454448
 20
977.1252945990276
  0
LWPOLYLINE
  5
2A05
330
18
100
AcDbEntity
  8
V5
100
AcDbPolyline
 90
        3
 70
     0
 43
0.0
 10
833.5506966085059
 20
997.4861845806401
 10
764.6363167199455
 20
997.4861845806401
 10
764.6363167199455
 20
1090.300526470618
  0
LINE
  5
2A06
330
18
100
AcDbEntity
  8
V5
100
AcDbLine
 10
763.5172435188561
 20
977.1252945990276
 30
0.0
 11
763.5172435188561
 21
994.2740627287959
 31
0.0
  0
LINE
  5
2A3A
330
18
100
AcDbEntity
  8
V5
100
AcDbLine
 10
743.7591427279287
 20
987.0169246215468
 30
0.0
 11
743.7591427279287
 21
987.0169246215468
 31
0.0
  0
LINE
  5
2A3B
330
18
100
AcDbEntity
  8
V5
100
AcDbLine
 10
743.7591427279287
 20
1018.266924621546
 30
0.0
 11
743.7591427279287
 21
1018.266924621546
 31
0.0
  0
LINE
  5
2A3E
330
18
100
AcDbEntity
  8
V5
100
AcDbLine
 10
751.5716427279287
 20
1002.641924621546
 30
0.0
 11
751.5716427279287
 21
1002.641924621546
 31
0.0
  0
LINE
  5
2A43
330
18
100
AcDbEntity
  8
V5
100
AcDbLine
 10
743.7591427279286
 20
1115.105430430303
 30
0.0
 11
743.7591427279286
 21
1115.105430430303
 31
0.0
  0
LINE
  5
2A44
330
18
100
AcDbEntity
  8
V5
100
AcDbLine
 10
751.5716427279287
 20
1033.891924621546
 30
0.0
 11
751.5716427279287
 21
1033.891924621546
 31
0.0
  0
LINE
  5
2A62
330
18
100
AcDbEntity
  8
V25
100
AcDbLine
 10
806.0454304024725
 20
1000.129632827384
 30
0.0
 11
806.0454304024725
 21
983.6168290949849
 31
0.0
  0
ARC
  5
2A9D
330
18
100
AcDbEntity
  8
V5
100
AcDbCircle
 10
780.6854646952164
 20
1273.326862438446
 30
0.0
 40
4.750187086735867
100
AcDbArc
 50
225.0
 51
45.0
  0
LINE
  5
2A9E
330
18
100
AcDbEntity
  8
TXT-D
  6
ByBlock
 62
     1
100
AcDbLine
 10
778.8004915874467
 20
1231.19163945964
 30
0.0
 11
831.3287521040191
 21
1231.19163945964
 31
0.0
  0
LINE
  5
2A9F
330
18
100
AcDbEntity
  8
V25
100
AcDbLine
 10
773.5679879305952
 20
1314.108003676764
 30
0.0
 11
742.7092879510655
 21
1314.108003676764
 31
0.0
  0
LINE
  5
2AA0
330
18
100
AcDbEntity
  8
V5
100
AcDbLine
 10
761.9190825141039
 20
1324.545524966813
 30
0.0
 11
761.9190825141039
 21
1298.81102362142
 31
0.0
  0
LINE
  5
2AA1
330
18
100
AcDbEntity
  8
V5
100
AcDbLine
 10
761.9190825141039
 20
1298.81102362142
 30
0.0
 11
784.0443541961475
 21
1276.685751939377
 31
0.0
  0
LINE
  5
2AA2
330
18
100
AcDbEntity
  8
V5
100
AcDbLine
 10
771.7896687680262
 20
1275.504879363756
 30
0.0
 11
777.3265751942761
 21
1269.967972937506
 31
0.0
  0
SOLID
  5
2AA5
330
18
100
AcDbEntity
  8
TXT-D
  6
ByBlock
 62
     1
100
AcDbTrace
 10
788.5192366770073
 20
1228.274972792973
 30
0.0
 11
788.5192366770073
 21
1234.108306126306
 31
0.0
 12
771.0192366770074
 22
1231.19163945964
 32
0.0
 13
771.0192366770074
 23
1231.19163945964
 33
0.0
  0
POINT
  5
2AA6
330
18
100
AcDbEntity
  8
DEFPOINTS
  6
ByBlock
 62
     0
380
     1
100
AcDbPoint
 10
758.4047493454448
 20
1207.501904500303
 30
0.0
  0
LINE
  5
2AA7
330
18
100
AcDbEntity
  8
V5
100
AcDbLine
 10
821.3242908937479
 20
1159.433829181712
 30
0.0
 11
821.3242908937479
 21
1302.846654573207
 31
0.0
  0
LINE
  5
2AAA
330
18
100
AcDbEntity
  8
V5
100
AcDbLine
 10
791.3242908937482
 20
1159.433829181712
 30
0.0
 11
791.3242908937482
 21
1302.846654573207
 31
0.0
  0
LINE
  5
2AAB
330
18
100
AcDbEntity
  8
V5
100
AcDbLine
 10
791.3242908937482
 20
1159.433829181712
 30
0.0
 11
821.3242908937479
 21
1159.433829181712
 31
0.0
  0
TEXT
  5
2AAE
330
18
100
AcDbEntity
  8
TXT-D
 62
     7
100
AcDbText
 10
829.3284248596838
 20
1237.032606015415
 30
0.0
 40
14.0
  1
min. 150
  7
ROMANS
100
AcDbText
  0
LINE
  5
2AE7
330
18
100
AcDbEntity
  8
TXT-D
  6
ByBlock
 62
     1
100
AcDbLine
 10
926.653370479644
 20
1219.379786135296
 30
0.0
 11
926.6533704796442
 21
1239.296536273556
 31
0.0
  0
SOLID
  5
2AE8
330
18
100
AcDbEntity
  8
TXT-D
  6
ByBlock
 62
     1
100
AcDbTrace
 10
909.1533704796447
 20
1228.158599215317
 30
0.0
 11
909.1533704796447
 21
1233.99193254865
 31
0.0
 12
926.6533704796446
 22
1231.075265881983
 32
0.0
 13
926.6533704796446
 23
1231.075265881983
 33
0.0
  0
POINT
  5
2AE9
330
18
100
AcDbEntity
  8
TXT-D
  6
ByBlock
 62
     1
100
AcDbPoint
 10
926.6533704796442
 20
1231.075265881983
 30
0.0
  0
LINE
  5
2AFC
330
18
100
AcDbEntity
  8
ACHS
 62
     3
 48
3.5
100
AcDbLine
 10
990.250318119588
 20
1269.953880214959
 30
0.0
 11
990.250318119588
 21
977.1252945990276
 31
0.0
  0
LINE
  5
2B05
330
18
100
AcDbEntity
  8
ACHS
 62
     3
 48
3.5
100
AcDbLine
 10
738.0575676003908
 20
1333.533402943233
 30
0.0
 11
738.0575676003906
 21
977.1252945990278
 31
0.0
  0
LINE
  5
2BF2
330
18
100
AcDbEntity
  8
0
 62
     0
380
     1
100
AcDbLine
 10
743.7591427279286
 20
1302.605430430303
 30
0.0
 11
743.7591427279286
 21
1302.605430430303
 31
0.0
  0
LINE
  5
2BFC
330
18
100
AcDbEntity
  8
0
 62
     0
380
     1
100
AcDbLine
 10
751.5716427279286
 20
1286.980430430303
 30
0.0
 11
751.5716427279286
 21
1286.980430430303
 31
0.0
  0
LINE
  5
2C05
330
18
100
AcDbEntity
  8
0
 62
     0
380
     1
100
AcDbLine
 10
743.7591427279286
 20
1271.355430430303
 30
0.0
 11
743.7591427279286
 21
1271.355430430303
 31
0.0
  0
LINE
  5
2C0F
330
18
100
AcDbEntity
  8
0
 62
     0
380
     1
100
AcDbLine
 10
751.5716427279286
 20
1255.730430430303
 30
0.0
 11
751.5716427279286
 21
1255.730430430303
 31
0.0
  0
LINE
  5
2C18
330
18
100
AcDbEntity
  8
0
 62
     0
380
     1
100
AcDbLine
 10
743.7591427279286
 20
1240.105430430303
 30
0.0
 11
743.7591427279286
 21
1240.105430430303
 31
0.0
  0
LINE
  5
2C22
330
18
100
AcDbEntity
  8
0
 62
     0
380
     1
100
AcDbLine
 10
754.4673849699312
 20
1235.090725249464
 30
0.0
 11
754.4673849699312
 21
1235.090725249464
 31
0.0
  0
LINE
  5
2C2B
330
18
100
AcDbEntity
  8
0
 62
     0
380
     1
100
AcDbLine
 10
743.7591427279286
 20
1208.855430430303
 30
0.0
 11
743.7591427279286
 21
1208.855430430303
 31
0.0
  0
LINE
  5
2C35
330
18
100
AcDbEntity
  8
0
 62
     0
380
     1
100
AcDbLine
 10
751.5716427279286
 20
1193.230430430303
 30
0.0
 11
751.5716427279286
 21
1193.230430430303
 31
0.0
  0
LINE
  5
2C3E
330
18
100
AcDbEntity
  8
0
 62
     0
380
     1
100
AcDbLine
 10
743.7591427279286
 20
1177.605430430303
 30
0.0
 11
743.7591427279286
 21
1177.605430430303
 31
0.0
  0
LINE
  5
2C48
330
18
100
AcDbEntity
  8
0
 62
     0
380
     1
100
AcDbLine
 10
751.5716427279286
 20
1161.980430430303
 30
0.0
 11
751.5716427279286
 21
1161.980430430303
 31
0.0
  0
LINE
  5
2C51
330
18
100
AcDbEntity
  8
0
 62
     0
380
     1
100
AcDbLine
 10
743.7591427279286
 20
1146.355430430303
 30
0.0
 11
743.7591427279286
 21
1146.355430430303
 31
0.0
  0
LINE
  5
2C5B
330
18
100
AcDbEntity
  8
0
 62
     0
380
     1
100
AcDbLine
 10
751.5716427279286
 20
1130.730430430303
 30
0.0
 11
751.5716427279286
 21
1130.730430430303
 31
0.0
  0
LINE
  5
2C64
330
18
100
AcDbEntity
  8
0
 62
     0
380
     1
100
AcDbLine
 10
743.7591427279286
 20
1115.105430430303
 30
0.0
 11
743.7591427279286
 21
1115.105430430303
 31
0.0
  0
LINE
  5
2C6E
330
18
100
AcDbEntity
  8
0
 62
     0
380
     1
100
AcDbLine
 10
751.5716427279286
 20
1099.480430430303
 30
0.0
 11
751.5716427279286
 21
1099.480430430303
 31
0.0
  0
LINE
  5
2C77
330
18
100
AcDbEntity
  8
0
 62
     0
380
     1
100
AcDbLine
 10
743.7591427279286
 20
1083.855430430303
 30
0.0
 11
743.7591427279286
 21
1083.855430430303
 31
0.0
  0
LINE
  5
2C81
330
18
100
AcDbEntity
  8
0
 62
     0
380
     1
100
AcDbLine
 10
751.5716427279286
 20
1068.230430430303
 30
0.0
 11
751.5716427279286
 21
1068.230430430303
 31
0.0
  0
LINE
  5
2C83
330
18
100
AcDbEntity
  8
V5
100
AcDbLine
 10
758.4047493454452
 20
1333.533402943233
 30
0.0
 11
758.4047493454449
 21
1129.354650524821
 31
0.0
  0
MTEXT
  5
2C98
330
18
100
AcDbEntity
  8
TXT-D
 62
     7
100
AcDbMText
 10
933.0955360729131
 20
1294.487213548292
 30
0.0
 40
16.0
 41
280.1616
 71
     2
 72
     5
  1
{\LALTERNATIVA}
  7
ROMANS
 73
     1
 44
1.0
  0
TEXT
  5
2CA3
330
18
100
AcDbEntity
  8
TXT-D
 62
     7
100
AcDbText
 10
843.0221016873028
 20
877.8172153472178
 30
0.0
 40
14.0
  1
tvrdá tepelná izolace
  7
ROMANS
100
AcDbText
  0
LINE
  5
2CA4
330
18
100
AcDbEntity
  8
TXT-D
100
AcDbLine
 10
837.1676432077446
 20
886.176955856939
 30
0.0
 11
794.0082770837697
 21
886.1769558569388
 31
0.0
  0
LINE
  5
2CA5
330
18
100
AcDbEntity
  8
TXT-D
100
AcDbLine
 10
835.7390717791732
 20
945.5283397612957
 30
0.0
 11
812.4988172108693
 21
945.5283397612955
 31
0.0
  0
TEXT
  5
2CA6
330
18
100
AcDbEntity
  8
TXT-D
 62
     7
100
AcDbText
 10
841.5935302587314
 20
937.1685992515745
 30
0.0
 40
14.0
  1
Kalzip - částečný profil
  7
ROMANS
100
AcDbText
  0
LINE
  5
2CA8
330
18
100
AcDbEntity
  8
TXT-D
100
AcDbLine
 10
812.4988172108693
 20
945.5283397612955
 30
0.0
 11
812.8922025472911
 21
1147.320353145092
 31
0.0
  0
LINE
  5
2CA9
330
18
100
AcDbEntity
  8
TXT-D
100
AcDbLine
 10
794.0082770837697
 20
886.1769558569388
 30
0.0
 11
794.0082770837698
 21
1046.100902345045
 31
0.0
  0
TEXT
  5
2CAC
330
18
100
AcDbEntity
  8
TXT-D
 62
     2
100
AcDbText
 10
841.5935302587314
 20
913.1261304604773
 30
0.0
 40
14.0
  1

  7
ROMANS
100
AcDbText
  0
LWPOLYLINE
  5
2CD2
330
18
100
AcDbEntity
  8
V35
100
AcDbPolyline
 90
        2
 70
     1
 43
2.9
 10
391.5522575666413
 20
556.875065971416
 42
1.0
 10
394.6522575666412
 20
556.875065971416
 42
1.0
  0
LWPOLYLINE
  5
2CD3
330
18
100
AcDbEntity
  8
V35
100
AcDbPolyline
 90
        2
 70
     1
 43
2.9
 10
321.854689363784
 20
562.1862514900868
 42
1.0
 10
324.9546893637839
 20
562.1862514900868
 42
1.0
  0
LWPOLYLINE
  5
2CD5
330
18
100
AcDbEntity
  8
V35
100
AcDbPolyline
 90
        2
 70
     1
 43
2.9
 10
704.6551894669737
 20
565.5478794148071
 42
1.0
 10
707.7551894669737
 20
565.5478794148071
 42
1.0
  0
LWPOLYLINE
  5
2CD6
330
18
100
AcDbEntity
  8
V35
100
AcDbPolyline
 90
        2
 70
     1
 43
2.9
 10
754.7063348009195
 20
675.5668524479205
 42
1.0
 10
757.8063348009195
 20
675.5668524479205
 42
1.0
  0
LWPOLYLINE
  5
2CD7
330
18
100
AcDbEntity
  8
V35
100
AcDbPolyline
 90
        2
 70
     1
 43
2.9
 10
789.0877691160697
 20
728.1752148827527
 42
1.0
 10
792.1877691160696
 20
728.1752148827527
 42
1.0
  0
LWPOLYLINE
  5
2CD8
330
18
100
AcDbEntity
  8
V35
100
AcDbPolyline
 90
        2
 70
     1
 43
2.9
 10
502.4168474038261
 20
713.3381609549631
 42
1.0
 10
505.5168474038261
 20
713.3381609549631
 42
1.0
  0
LWPOLYLINE
  5
2CD9
330
18
100
AcDbEntity
  8
V35
100
AcDbPolyline
 90
        2
 70
     1
 43
2.9
 10
494.1168061841105
 20
742.7730388371201
 42
1.0
 10
497.2168061841105
 20
742.7730388371201
 42
1.0
  0
LWPOLYLINE
  5
2CDA
330
18
100
AcDbEntity
  8
V35
100
AcDbPolyline
 90
        2
 70
     1
 43
2.9
 10
467.2748271291669
 20
746.8344646030338
 42
1.0
 10
470.3748271291669
 20
746.8344646030338
 42
1.0
  0
LWPOLYLINE
  5
2CDB
330
18
100
AcDbEntity
  8
V35
100
AcDbPolyline
 90
        2
 70
     1
 43
2.9
 10
438.0623159023726
 20
759.9036563327991
 42
1.0
 10
441.1623159023726
 20
759.9036563327991
 42
1.0
  0
LWPOLYLINE
  5
2CDD
330
18
100
AcDbEntity
  8
V35
100
AcDbPolyline
 90
        2
 70
     1
 43
2.9
 10
364.1642857142857
 20
1052.240948721737
 42
1.0
 10
367.2642857142856
 20
1052.240948721737
 42
1.0
  0
LWPOLYLINE
  5
2CDE
330
18
100
AcDbEntity
  8
V35
100
AcDbPolyline
 90
        2
 70
     1
 43
2.9
 10
345.3442345124232
 20
1088.240948721737
 42
1.0
 10
348.4442345124231
 20
1088.240948721737
 42
1.0
  0
LWPOLYLINE
  5
2CDF
330
18
100
AcDbEntity
  8
V35
100
AcDbPolyline
 90
        2
 70
     1
 43
2.9
 10
298.7185274805764
 20
1231.009320441639
 42
1.0
 10
301.8185274805763
 20
1231.009320441639
 42
1.0
  0
LWPOLYLINE
  5
2CE0
330
18
100
AcDbEntity
  8
V35
100
AcDbPolyline
 90
        2
 70
     1
 43
2.9
 10
368.9802534857559
 20
1255.447990850721
 42
1.0
 10
372.0802534857559
 20
1255.447990850721
 42
1.0
  0
LWPOLYLINE
  5
2CE1
330
18
100
AcDbEntity
  8
V35
100
AcDbPolyline
 90
        2
 70
     1
 43
2.9
 10
248.4794730600535
 20
1267.223096932758
 42
1.0
 10
251.5794730600534
 20
1267.223096932758
 42
1.0
  0
LWPOLYLINE
  5
2CE2
330
18
100
AcDbEntity
  8
V35
100
AcDbPolyline
 90
        2
 70
     1
 43
2.9
 10
811.3422025472912
 20
1147.320353145092
 42
1.0
 10
814.4422025472911
 20
1147.320353145092
 42
1.0
  0
LWPOLYLINE
  5
2CE3
330
18
100
AcDbEntity
  8
V35
100
AcDbPolyline
 90
        2
 70
     1
 43
2.9
 10
792.4582770837698
 20
1046.100902345045
 42
1.0
 10
795.5582770837698
 20
1046.100902345045
 42
1.0
  0
ARC
  5
2D15
330
18
100
AcDbEntity
  8
ISOTRI46
100
AcDbCircle
 10
361.0260453262184
 20
541.0618487442353
 30
0.0
 40
3.0
100
AcDbArc
 50
270.0000370537325
 51
0.0000132755010465
  0
ARC
  5
2D16
330
18
100
AcDbEntity
  8
ISOTRI46
100
AcDbCircle
 10
337.0260530867347
 20
541.0618487442353
 30
0.0
 40
3.0
100
AcDbArc
 50
270.0000370537325
 51
0.0000132755010465
  0
ARC
  5
2D17
330
18
100
AcDbEntity
  8
ISOTRI46
100
AcDbCircle
 10
349.0260530867345
 20
541.0618487442353
 30
0.0
 40
3.0
100
AcDbArc
 50
179.999986724499
 51
269.9999629462675
  0
ARC
  5
2D18
330
18
100
AcDbEntity
  8
ISOTRI46
100
AcDbCircle
 10
361.0260492064763
 20
541.0618487442353
 30
0.0
 40
3.0
100
AcDbArc
 50
179.999986724499
 51
269.9999629462675
  0
ARC
  5
2D19
330
18
100
AcDbEntity
  8
ISOTRI46
100
AcDbCircle
 10
349.0260492064765
 20
541.0618487442353
 30
0.0
 40
3.0
100
AcDbArc
 50
270.0000370537325
 51
0.0000132755010465
  0
ARC
  5
2D1B
330
18
100
AcDbEntity
  8
ISOTRI46
100
AcDbCircle
 10
385.0260414459601
 20
541.0618487442353
 30
0.0
 40
3.0
100
AcDbArc
 50
179.999986724499
 51
269.9999629462675
  0
ARC
  5
2D1C
330
18
100
AcDbEntity
  8
ISOTRI46
100
AcDbCircle
 10
373.0260453262182
 20
541.0618487442353
 30
0.0
 40
3.0
100
AcDbArc
 50
179.999986724499
 51
269.9999629462675
  0
ARC
  5
2D1D
330
18
100
AcDbEntity
  8
ISOTRI46
100
AcDbCircle
 10
373.0260414459603
 20
541.0618487442353
 30
0.0
 40
3.0
100
AcDbArc
 50
270.0000370537325
 51
0.0000132755010465
  0
ARC
  5
2D1E
330
18
100
AcDbEntity
  8
ISOTRI46
100
AcDbCircle
 10
397.0260375657019
 20
541.0618487442353
 30
0.0
 40
3.0
100
AcDbArc
 50
179.999986724499
 51
269.9999629462675
  0
ARC
  5
2D1F
330
18
100
AcDbEntity
  8
ISOTRI46
100
AcDbCircle
 10
385.0260375657022
 20
541.0618487442353
 30
0.0
 40
3.0
100
AcDbArc
 50
270.0000370537325
 51
0.0000132755010465
  0
ARC
  5
2D20
330
18
100
AcDbEntity
  8
ISOTRI46
100
AcDbCircle
 10
397.026033685444
 20
541.0618487442353
 30
0.0
 40
3.0
100
AcDbArc
 50
270.0000370537325
 51
0.0000132755010465
  0
ARC
  5
2D21
330
18
100
AcDbEntity
  8
ISOTRI46
100
AcDbCircle
 10
421.0260259249277
 20
541.0618487442353
 30
0.0
 40
3.0
100
AcDbArc
 50
270.0000370537325
 51
0.0000132755010465
  0
ARC
  5
2D22
330
18
100
AcDbEntity
  8
ISOTRI46
100
AcDbCircle
 10
409.0260336854438
 20
541.0618487442353
 30
0.0
 40
3.0
100
AcDbArc
 50
179.999986724499
 51
269.9999629462675
  0
ARC
  5
2D23
330
18
100
AcDbEntity
  8
ISOTRI46
100
AcDbCircle
 10
421.0260298051856
 20
541.0618487442353
 30
0.0
 40
3.0
100
AcDbArc
 50
179.999986724499
 51
269.9999629462675
  0
ARC
  5
2D24
330
18
100
AcDbEntity
  8
ISOTRI46
100
AcDbCircle
 10
409.0260298051858
 20
541.0618487442353
 30
0.0
 40
3.0
100
AcDbArc
 50
270.0000370537325
 51
0.0000132755010465
  0
ARC
  5
2D25
330
18
100
AcDbEntity
  8
ISOTRI46
100
AcDbCircle
 10
433.0260259249275
 20
541.0618487442353
 30
0.0
 40
3.0
100
AcDbArc
 50
179.999986724499
 51
269.9999629462675
  0
ARC
  5
2D26
330
18
100
AcDbEntity
  8
ISOTRI46
100
AcDbCircle
 10
433.0260220446696
 20
541.0618487442353
 30
0.0
 40
3.0
100
AcDbArc
 50
270.0000370537325
 51
0.0000132755010465
  0
ARC
  5
2D29
330
18
100
AcDbEntity
  8
ISOTRI46
100
AcDbCircle
 10
343.0260530867345
 20
643.2510688548782
 30
0.0
 40
3.0
100
AcDbArc
 50
89.9999727148406
 51
179.9999311689215
  0
ARC
  5
2D2A
330
18
100
AcDbEntity
  8
ISOTRI46
100
AcDbCircle
 10
343.0260530867345
 20
643.2510688548782
 30
0.0
 40
3.0
100
AcDbArc
 50
0.0000688310784947
 51
90.00002728515942
  0
ARC
  5
2D2B
330
18
100
AcDbEntity
  8
ISOTRI46
100
AcDbCircle
 10
355.0260492064764
 20
643.2510688548782
 30
0.0
 40
3.0
100
AcDbArc
 50
0.0000688310784947
 51
90.00002728515942
  0
ARC
  5
2D2C
330
18
100
AcDbEntity
  8
ISOTRI46
100
AcDbCircle
 10
355.0260492064764
 20
643.2510688548782
 30
0.0
 40
3.0
100
AcDbArc
 50
89.9999727148406
 51
179.9999311689215
  0
ARC
  5
2D2D
330
18
100
AcDbEntity
  8
ISOTRI46
100
AcDbCircle
 10
439.0260220446694
 20
643.2510688548782
 30
0.0
 40
3.0
100
AcDbArc
 50
0.0000688310784947
 51
90.00002728515942
  0
ARC
  5
2D2E
330
18
100
AcDbEntity
  8
ISOTRI46
100
AcDbCircle
 10
367.0260453262183
 20
643.2510688548782
 30
0.0
 40
3.0
100
AcDbArc
 50
0.0000688310784947
 51
90.00002728515942
  0
ARC
  5
2D2F
330
18
100
AcDbEntity
  8
ISOTRI46
100
AcDbCircle
 10
379.0260414459601
 20
643.2510688548782
 30
0.0
 40
3.0
100
AcDbArc
 50
0.0000688310784947
 51
90.00002728515942
  0
ARC
  5
2D30
330
18
100
AcDbEntity
  8
ISOTRI46
100
AcDbCircle
 10
379.0260414459601
 20
643.2510688548782
 30
0.0
 40
3.0
100
AcDbArc
 50
89.9999727148406
 51
179.9999311689215
  0
ARC
  5
2D31
330
18
100
AcDbEntity
  8
ISOTRI46
100
AcDbCircle
 10
391.026037565702
 20
643.2510688548782
 30
0.0
 40
3.0
100
AcDbArc
 50
0.0000688310784947
 51
90.00002728515942
  0
ARC
  5
2D32
330
18
100
AcDbEntity
  8
ISOTRI46
100
AcDbCircle
 10
391.026037565702
 20
643.2510688548782
 30
0.0
 40
3.0
100
AcDbArc
 50
89.9999727148406
 51
179.9999311689215
  0
ARC
  5
2D33
330
18
100
AcDbEntity
  8
ISOTRI46
100
AcDbCircle
 10
403.0260336854438
 20
643.2510688548782
 30
0.0
 40
3.0
100
AcDbArc
 50
0.0000688310784947
 51
90.00002728515942
  0
ARC
  5
2D34
330
18
100
AcDbEntity
  8
ISOTRI46
100
AcDbCircle
 10
403.0260336854438
 20
643.2510688548782
 30
0.0
 40
3.0
100
AcDbArc
 50
89.9999727148406
 51
179.9999311689215
  0
ARC
  5
2D35
330
18
100
AcDbEntity
  8
ISOTRI46
100
AcDbCircle
 10
415.0260298051857
 20
643.2510688548782
 30
0.0
 40
3.0
100
AcDbArc
 50
0.0000688310784947
 51
90.00002728515942
  0
ARC
  5
2D36
330
18
100
AcDbEntity
  8
ISOTRI46
100
AcDbCircle
 10
415.0260298051857
 20
643.2510688548782
 30
0.0
 40
3.0
100
AcDbArc
 50
89.9999727148406
 51
179.9999311689215
  0
ARC
  5
2D37
330
18
100
AcDbEntity
  8
ISOTRI46
100
AcDbCircle
 10
427.0260259249275
 20
643.2510688548782
 30
0.0
 40
3.0
100
AcDbArc
 50
0.0000688310784947
 51
90.00002728515942
  0
ARC
  5
2D38
330
18
100
AcDbEntity
  8
ISOTRI46
100
AcDbCircle
 10
427.0260259249275
 20
643.2510688548782
 30
0.0
 40
3.0
100
AcDbArc
 50
89.9999727148406
 51
179.9999311689215
  0
ARC
  5
2D39
330
18
100
AcDbEntity
  8
ISOTRI46
100
AcDbCircle
 10
439.0260220446694
 20
643.2510688548782
 30
0.0
 40
3.0
100
AcDbArc
 50
89.9999727148406
 51
179.9999311689215
  0
ARC
  5
2D3A
330
18
100
AcDbEntity
  8
ISOTRI46
100
AcDbCircle
 10
367.0260453262183
 20
643.2510688548782
 30
0.0
 40
3.0
100
AcDbArc
 50
89.9999727148406
 51
179.9999311689215
  0
ARC
  5
2D3B
330
18
100
AcDbEntity
  8
ISOTRI46
100
AcDbCircle
 10
451.0260181644112
 20
643.2510688548782
 30
0.0
 40
3.0
100
AcDbArc
 50
0.0000688310784947
 51
90.00002728515942
  0
ARC
  5
2D3C
330
18
100
AcDbEntity
  8
ISOTRI46
100
AcDbCircle
 10
451.0260181644112
 20
643.2510688548782
 30
0.0
 40
3.0
100
AcDbArc
 50
89.9999727148406
 51
179.9999311689215
  0
ARC
  5
2D49
330
18
100
AcDbEntity
  8
ISOTRI46
100
AcDbCircle
 10
781.188180300968
 20
1138.655799215716
 30
0.0
 40
3.0
100
AcDbArc
 50
0.0000688310784947
 51
90.00002728515942
  0
ARC
  5
2D4A
330
18
100
AcDbEntity
  8
ISOTRI46
100
AcDbCircle
 10
781.188180300968
 20
1138.655799215716
 30
0.0
 40
3.0
100
AcDbArc
 50
89.9999727148406
 51
179.9999311689215
  0
ARC
  5
2D4B
330
18
100
AcDbEntity
  8
ISOTRI46
100
AcDbCircle
 10
793.1881764207099
 20
1138.655799215716
 30
0.0
 40
3.0
100
AcDbArc
 50
0.0000688310784947
 51
90.00002728515942
  0
ARC
  5
2D4C
330
18
100
AcDbEntity
  8
ISOTRI46
100
AcDbCircle
 10
793.1881764207099
 20
1138.655799215716
 30
0.0
 40
3.0
100
AcDbArc
 50
89.9999727148406
 51
179.9999311689215
  0
ARC
  5
2D4E
330
18
100
AcDbEntity
  8
ISOTRI46
100
AcDbCircle
 10
877.1881492589029
 20
1138.655799215716
 30
0.0
 40
3.0
100
AcDbArc
 50
0.0000688310784947
 51
90.00002728515942
  0
ARC
  5
2D4F
330
18
100
AcDbEntity
  8
ISOTRI46
100
AcDbCircle
 10
841.1881608996774
 20
1138.655799215716
 30
0.0
 40
3.0
100
AcDbArc
 50
89.9999727148406
 51
179.9999311689215
  0
ARC
  5
2D50
330
18
100
AcDbEntity
  8
ISOTRI46
100
AcDbCircle
 10
805.1881725404518
 20
1138.655799215716
 30
0.0
 40
3.0
100
AcDbArc
 50
0.0000688310784947
 51
90.00002728515942
  0
ARC
  5
2D51
330
18
100
AcDbEntity
  8
ISOTRI46
100
AcDbCircle
 10
817.1881686601937
 20
1138.655799215716
 30
0.0
 40
3.0
100
AcDbArc
 50
0.0000688310784947
 51
90.00002728515942
  0
ARC
  5
2D52
330
18
100
AcDbEntity
  8
ISOTRI46
100
AcDbCircle
 10
817.1881686601937
 20
1138.655799215716
 30
0.0
 40
3.0
100
AcDbArc
 50
89.9999727148406
 51
179.9999311689215
  0
ARC
  5
2D53
330
18
100
AcDbEntity
  8
ISOTRI46
100
AcDbCircle
 10
805.1881725404518
 20
1138.655799215716
 30
0.0
 40
3.0
100
AcDbArc
 50
89.9999727148406
 51
179.9999311689215
  0
ARC
  5
2D54
330
18
100
AcDbEntity
  8
ISOTRI46
100
AcDbCircle
 10
829.1881647799355
 20
1138.655799215716
 30
0.0
 40
3.0
100
AcDbArc
 50
0.0000688310784947
 51
90.00002728515942
  0
ARC
  5
2D55
330
18
100
AcDbEntity
  8
ISOTRI46
100
AcDbCircle
 10
829.1881647799355
 20
1138.655799215716
 30
0.0
 40
3.0
100
AcDbArc
 50
89.9999727148406
 51
179.9999311689215
  0
ARC
  5
2D56
330
18
100
AcDbEntity
  8
ISOTRI46
100
AcDbCircle
 10
841.1881608996774
 20
1138.655799215716
 30
0.0
 40
3.0
100
AcDbArc
 50
0.0000688310784947
 51
90.00002728515942
  0
ARC
  5
2D57
330
18
100
AcDbEntity
  8
ISOTRI46
100
AcDbCircle
 10
853.1881570194192
 20
1138.655799215716
 30
0.0
 40
3.0
100
AcDbArc
 50
0.0000688310784947
 51
90.00002728515942
  0
ARC
  5
2D58
330
18
100
AcDbEntity
  8
ISOTRI46
100
AcDbCircle
 10
853.1881570194192
 20
1138.655799215716
 30
0.0
 40
3.0
100
AcDbArc
 50
89.9999727148406
 51
179.9999311689215
  0
ARC
  5
2D59
330
18
100
AcDbEntity
  8
ISOTRI46
100
AcDbCircle
 10
865.1881531391611
 20
1138.655799215716
 30
0.0
 40
3.0
100
AcDbArc
 50
0.0000688310784947
 51
90.00002728515942
  0
ARC
  5
2D5A
330
18
100
AcDbEntity
  8
ISOTRI46
100
AcDbCircle
 10
865.1881531391611
 20
1138.655799215716
 30
0.0
 40
3.0
100
AcDbArc
 50
89.9999727148406
 51
179.9999311689215
  0
ARC
  5
2D5B
330
18
100
AcDbEntity
  8
ISOTRI46
100
AcDbCircle
 10
877.1881492589029
 20
1138.655799215716
 30
0.0
 40
3.0
100
AcDbArc
 50
89.9999727148406
 51
179.9999311689215
  0
ARC
  5
2D5C
330
18
100
AcDbEntity
  8
ISOTRI46
100
AcDbCircle
 10
889.1881453786448
 20
1138.655799215716
 30
0.0
 40
3.0
100
AcDbArc
 50
0.0000688310784947
 51
90.00002728515942
  0
ARC
  5
2D5D
330
18
100
AcDbEntity
  8
ISOTRI46
100
AcDbCircle
 10
889.1881453786448
 20
1138.655799215716
 30
0.0
 40
3.0
100
AcDbArc
 50
89.9999727148406
 51
179.9999311689215
  0
LWPOLYLINE
  5
2D71
330
18
100
AcDbEntity
  8
V25
100
AcDbPolyline
 90
        4
 70
     0
 43
0.0
 10
773.9686650347866
 20
1008.478651570048
 10
773.9686650347866
 20
1141.655799215716
 10
892.1881453786427
 20
1141.655799215715
 10
892.1881453786404
 20
1008.478651570048
  0
ARC
  5
2D72
330
18
100
AcDbEntity
  8
ISOTRI46
100
AcDbCircle
 10
799.1881725404518
 20
1011.478651570047
 30
0.0
 40
3.0
100
AcDbArc
 50
270.0000370537325
 51
0.0000132755010465
  0
ARC
  5
2D73
330
18
100
AcDbEntity
  8
ISOTRI46
100
AcDbCircle
 10
799.1881764207098
 20
1011.478651570047
 30
0.0
 40
3.0
100
AcDbArc
 50
179.999986724499
 51
269.9999629462675
  0
ARC
  5
2D74
330
18
100
AcDbEntity
  8
ISOTRI46
100
AcDbCircle
 10
883.188149258903
 20
1011.478651570047
 30
0.0
 40
3.0
100
AcDbArc
 50
179.999986724499
 51
269.9999629462675
  0
ARC
  5
2D75
330
18
100
AcDbEntity
  8
ISOTRI46
100
AcDbCircle
 10
823.1881686601935
 20
1011.478651570047
 30
0.0
 40
3.0
100
AcDbArc
 50
179.999986724499
 51
269.9999629462675
  0
ARC
  5
2D76
330
18
100
AcDbEntity
  8
ISOTRI46
100
AcDbCircle
 10
811.1881686601938
 20
1011.478651570047
 30
0.0
 40
3.0
100
AcDbArc
 50
270.0000370537325
 51
0.0000132755010465
  0
ARC
  5
2D77
330
18
100
AcDbEntity
  8
ISOTRI46
100
AcDbCircle
 10
811.1881725404517
 20
1011.478651570047
 30
0.0
 40
3.0
100
AcDbArc
 50
179.999986724499
 51
269.9999629462675
  0
ARC
  5
2D78
330
18
100
AcDbEntity
  8
ISOTRI46
100
AcDbCircle
 10
835.1881608996775
 20
1011.478651570047
 30
0.0
 40
3.0
100
AcDbArc
 50
270.0000370537325
 51
0.0000132755010465
  0
ARC
  5
2D79
330
18
100
AcDbEntity
  8
ISOTRI46
100
AcDbCircle
 10
823.1881647799356
 20
1011.478651570047
 30
0.0
 40
3.0
100
AcDbArc
 50
270.0000370537325
 51
0.0000132755010465
  0
ARC
  5
2D7A
330
18
100
AcDbEntity
  8
ISOTRI46
100
AcDbCircle
 10
835.1881647799356
 20
1011.478651570047
 30
0.0
 40
3.0
100
AcDbArc
 50
179.999986724499
 51
269.9999629462675
  0
ARC
  5
2D7B
330
18
100
AcDbEntity
  8
ISOTRI46
100
AcDbCircle
 10
859.1881531391612
 20
1011.478651570047
 30
0.0
 40
3.0
100
AcDbArc
 50
270.0000370537325
 51
0.0000132755010465
  0
ARC
  5
2D7C
330
18
100
AcDbEntity
  8
ISOTRI46
100
AcDbCircle
 10
847.1881570194193
 20
1011.478651570047
 30
0.0
 40
3.0
100
AcDbArc
 50
270.0000370537325
 51
0.0000132755010465
  0
ARC
  5
2D7D
330
18
100
AcDbEntity
  8
ISOTRI46
100
AcDbCircle
 10
859.1881570194191
 20
1011.478651570047
 30
0.0
 40
3.0
100
AcDbArc
 50
179.999986724499
 51
269.9999629462675
  0
ARC
  5
2D7E
330
18
100
AcDbEntity
  8
ISOTRI46
100
AcDbCircle
 10
847.1881608996772
 20
1011.478651570047
 30
0.0
 40
3.0
100
AcDbArc
 50
179.999986724499
 51
269.9999629462675
  0
ARC
  5
2D7F
330
18
100
AcDbEntity
  8
ISOTRI46
100
AcDbCircle
 10
871.1881492589032
 20
1011.478651570047
 30
0.0
 40
3.0
100
AcDbArc
 50
270.0000370537325
 51
0.0000132755010465
  0
ARC
  5
2D80
330
18
100
AcDbEntity
  8
ISOTRI46
100
AcDbCircle
 10
871.1881531391609
 20
1011.478651570047
 30
0.0
 40
3.0
100
AcDbArc
 50
179.999986724499
 51
269.9999629462675
  0
ARC
  5
2D81
330
18
100
AcDbEntity
  8
ISOTRI46
100
AcDbCircle
 10
883.1881453786449
 20
1011.478651570047
 30
0.0
 40
3.0
100
AcDbArc
 50
270.0000370537325
 51
0.0000132755010465
  0
ARC
  5
2D82
330
18
100
AcDbEntity
  8
ISOTRI46
100
AcDbCircle
 10
775.1881803009682
 20
1011.478651570047
 30
0.0
 40
3.0
100
AcDbArc
 50
270.0000370537325
 51
0.0000132755010465
  0
ARC
  5
2D83
330
18
100
AcDbEntity
  8
ISOTRI46
100
AcDbCircle
 10
787.1881764207101
 20
1011.478651570047
 30
0.0
 40
3.0
100
AcDbArc
 50
270.0000370537325
 51
0.0000132755010465
  0
ARC
  5
2D84
330
18
100
AcDbEntity
  8
ISOTRI46
100
AcDbCircle
 10
787.188180300968
 20
1011.478651570047
 30
0.0
 40
3.0
100
AcDbArc
 50
179.999986724499
 51
269.9999629462675
  0
LINE
  5
2D97
330
18
100
AcDbEntity
  8
V25
100
AcDbLine
 10
329.6334500462472
 20
575.0034264920578
 30
0.0
 11
286.6273046091557
 21
575.0034264920576
 31
0.0
  0
LWPOLYLINE
  5
2D9A
330
18
100
AcDbEntity
  8
SV35
  6
AUSGEZOGEN
 48
5.0
100
AcDbPolyline
 90
        4
 70
     1
 43
0.0
 10
763.8809179898428
 20
1032.707018194013
 10
763.8809179898428
 20
1062.707018194013
 10
758.8809179898428
 20
1062.707018194013
 10
758.8809179898428
 20
1032.707018194013
  0
HATCH
  5
2D9B
330
18
100
AcDbEntity
  8
V25
 48
5.0
100
AcDbHatch
 10
0.0
 20
0.0
 30
0.0
210
0.0
220
0.0
230
1.0
  2
ANSI37
 70
     0
 71
     0
 91
        1
 92
        7
 72
     0
 73
     1
 93
        4
 10
758.8809179898428
 20
1032.707018194013
 10
763.880917989843
 20
1032.707018194013
 10
763.880917989843
 20
1062.707018194013
 10
758.8809179898428
 20
1062.707018194013
 97
        0
 75
     0
 76
     1
 52
90.0
 41
1.0
 77
     0
 78
     2
 53
135.0
 43
1416.063682976706
 44
548.3909942260195
 45
-2.245064030267288
 46
-2.245064030267287
 79
     0
 53
225.0
 43
1416.063682976706
 44
548.3909942260195
 45
2.245064030267287
 46
-2.245064030267288
 79
     0
 47
0.1149827854136383
 98
        1
 10
760.5504060074577
 20
1050.982781848374
  0
LINE
  5
2D9C
330
18
100
AcDbEntity
  8
V25
100
AcDbLine
 10
766.733746821121
 20
1046.141999765725
 30
0.0
 11
741.5624885664983
 21
1046.141999765725
 31
0.0
  0
LINE
  5
2DB4
102
{ACAD_REACTORS
330
2E9F
102
}
330
18
100
AcDbEntity
  8
V5
100
AcDbLine
 10
321.2547767781849
 20
1198.627571442398
 30
0.0
 11
321.2547767781851
 21
116.2971790682982
 31
0.0
  0
LINE
  5
2DB8
102
{ACAD_REACTORS
330
2E9F
102
}
330
18
100
AcDbEntity
  8
V5
100
AcDbLine
 10
171.254776778185
 20
116.2971790682982
 30
0.0
 11
171.254776778185
 21
1198.627571442398
 31
0.0
  0
LINE
  5
2DB9
102
{ACAD_REACTORS
330
2E9F
102
}
330
18
100
AcDbEntity
  8
V5
100
AcDbLine
 10
171.254776778185
 20
1198.627571442398
 30
0.0
 11
181.254776778185
 21
1208.627571442398
 31
0.0
  0
LINE
  5
2DBA
102
{ACAD_REACTORS
330
2E9F
102
}
330
18
100
AcDbEntity
  8
V5
100
AcDbLine
 10
181.254776778185
 20
1208.627571442398
 30
0.0
 11
311.2547767781848
 21
1208.627571442398
 31
0.0
  0
LINE
  5
2DBB
102
{ACAD_REACTORS
330
2E9F
102
}
330
18
100
AcDbEntity
  8
V5
100
AcDbLine
 10
311.2547767781848
 20
1208.627571442398
 30
0.0
 11
321.2547767781849
 21
1198.627571442398
 31
0.0
  0
HATCH
  5
2E9F
330
18
100
AcDbEntity
  8
V35
  6
VERDECKTX2
 48
5.0
100
AcDbHatch
 10
0.0
 20
0.0
 30
0.0
210
0.0
220
0.0
230
1.0
  2
DOTS
 70
     0
 71
     1
 91
        1
 92
        7
 72
     0
 73
     1
 93
        6
 10
321.2547767781848
 20
1198.627571442398
 10
311.2547767781848
 20
1208.627571442398
 10
181.2547767781851
 20
1208.627571442398
 10
171.254776778185
 20
1198.627571442399
 10
171.254776778185
 20
116.2971790682982
 10
321.2547767781851
 20
116.2971790682982
 97
        6
330
2DBB
330
2DBA
330
2DB9
330
2DB8
330
1D6B
330
2DB4
 75
     0
 76
     1
 52
0.0
 41
8.0
 77
     0
 78
     1
 53
0.0
 43
0.0
 44
0.0
 45
6.349999999999999
 46
12.7
 79
     2
 49
0.0
 49
-12.7
 47
1.808091306502711
 98
        1
 10
285.1563192205558
 20
795.0541537024701
  0
MTEXT
  5
3284
102
{ACAD_XDICTIONARY
360
4F73
102
}
330
18
100
AcDbEntity
  8
TXT-D
 62
     7
100
AcDbMText
 10
835.8117773695166
 20
736.4385355792405
 30
0.0
 40
14.0
 41
457.8343
 71
     1
 72
     5
  1
s termopodlo\U+017Ekou
  7
ROMANS
 73
     1
 44
1.0
  0
LINE
  5
341F
330
18
100
AcDbEntity
  8
V5
 62
     7
100
AcDbLine
 10
585.7555608818183
 20
745.8834521572093
 30
0.0
 11
567.6294051410851
 21
754.3358173920232
 31
0.0
  0
LINE
  5
3420
330
18
100
AcDbEntity
  8
V5
100
AcDbLine
 10
567.6294051410851
 20
754.3358173920232
 30
0.0
 11
325.27439823298
 21
764.8765479536963
 31
0.0
  0
LINE
  5
379A
330
18
100
AcDbEntity
  8
V5
 62
     4
100
AcDbLine
 10
856.6374552018203
 20
448.1963520028018
 30
0.0
 11
336.3672709515962
 21
448.1963520028011
 31
0.0
  0
LINE
  5
379B
330
18
100
AcDbEntity
  8
V5
 62
     4
100
AcDbLine
 10
856.6374552018201
 20
488.1354894551292
 30
0.0
 11
336.367270951596
 21
488.1354894551291
 31
0.0
  0
INSERT
  5
4525
330
18
100
AcDbEntity
  8
V35
  6
AUSGEZOGEN
 62
     6
 48
10.0
100
AcDbBlockReference
  2
e140
 10
789.8191058168963
 20
538.2816249836273
 30
0.0
  0
LWPOLYLINE
  5
4526
330
18
100
AcDbEntity
  8
V35
100
AcDbPolyline
 90
       14
 70
     0
 43
0.0
 10
784.8925830153444
 20
721.5761317793298
 42
-0.851871763787294
 10
791.6204459642495
 20
741.8890545102595
 42
-0.3441842485073744
 10
794.9680493163091
 20
738.2784959449796
 10
794.9977547061653
 20
737.9230918246458
 42
0.3077507175483973
 10
797.8429166799919
 20
734.439259567142
 42
-0.3559174951861054
 10
800.68873953233
 20
730.2621465863799
 42
-0.2401758746392449
 10
795.4832229380918
 20
721.9080421116455
 42
0.2629884054316376
 10
794.0311224090437
 20
719.3382158085965
 10
794.031122409074
 20
687.5988314698165
 42
0.2931365125316157
 10
794.6254223777505
 20
686.68715571453
 10
794.8896705990976
 20
686.5668952176861
 42
-0.2939859278524366
 10
798.1114348034241
 20
681.5610345080935
 42
0.4142135623730951
 10
802.2114348034241
 20
677.4610345080937
 10
856.6374552018205
 20
677.4610345080933
  0
LWPOLYLINE
  5
4527
330
18
100
AcDbEntity
  8
V35
100
AcDbPolyline
 90
       33
 70
     0
 43
0.0
 10
479.8925830153443
 20
721.5761317793298
 42
-0.8518717637873237
 10
486.6204459642495
 20
741.8890545102595
 42
-0.3441842485073744
 10
489.9680493163091
 20
738.2784959449796
 10
489.9977547061653
 20
737.9230918246458
 42
0.3077507175483973
 10
492.842916679992
 20
734.439259567142
 42
-0.3559174951861054
 10
495.6887395323301
 20
730.2621465863799
 42
-0.2401758746392449
 10
490.4832229380917
 20
721.9080421116455
 42
0.2629884054316376
 10
489.0311224090437
 20
719.3382158085965
 10
489.031122409074
 20
687.5988314698165
 42
0.2931365125316157
 10
489.6254223777504
 20
686.68715571453
 10
489.8896705990976
 20
686.5668952176861
 42
-0.2939859278524366
 10
493.1114348034241
 20
681.5610345080935
 42
0.4142135623730951
 10
497.2114348034242
 20
677.4610345080937
 10
576.9511165391472
 20
677.4610345080932
 42
0.2446984432290329
 10
580.309639920732
 20
679.2093711190541
 10
582.9750489207319
 20
683.0159701190545
 42
-0.5205670505517518
 10
591.9857214079106
 20
683.0159713771813
 10
594.6511314079109
 20
679.2093723771817
 42
0.2446984432290355
 10
598.0096539398296
 20
677.4610361340269
 10
678.9496539398296
 20
677.4610361340269
 42
0.2446984432290357
 10
682.308176471748
 20
679.2093723771817
 10
684.9735864717481
 20
683.0159713771813
 42
-0.5205670505517466
 10
693.984258958927
 20
683.0159701190545
 10
696.649667958927
 20
679.2093711190541
 42
0.2446984432290353
 10
700.008191340512
 20
677.4610345080937
 10
777.5722153026326
 20
677.4610345080937
 42
0.4142135623731031
 10
781.6721153026326
 20
681.5609345080933
 42
-0.2939817751607098
 10
784.8938795081874
 20
686.5668952176861
 10
785.1581277295345
 20
686.68715571453
 42
0.2931365125316157
 10
785.752427698211
 20
687.5988314698165
 10
785.7524276982394
 20
714.654400651952
 42
0.2992947414849744
 10
783.9415326230955
 20
717.4086754163322
 42
-3.892127811935753
 10
798.3482886681949
 20
718.7875662137393
  0
INSERT
  5
4528
330
18
100
AcDbEntity
  8
V35
  6
AUSGEZOGEN
 62
     6
 48
10.0
100
AcDbBlockReference
  2
e140
 10
483.5890053455382
 20
536.0204234498146
 30
0.0
  0
LWPOLYLINE
  5
4534
330
18
100
AcDbEntity
  8
V35
100
AcDbPolyline
 90
        2
 70
     1
 43
2.9
 10
664.1259822018664
 20
528.9845898038207
 42
1.0
 10
667.2259822018664
 20
528.9845898038207
 42
1.0
  0
LWPOLYLINE
  5
4536
330
18
100
AcDbEntity
  8
V25
100
AcDbPolyline
 90
        4
 70
     0
 43
0.0
 10
335.8065378205532
 20
538.0618487442363
 10
335.8065378205531
 20
646.5472941671021
 10
454.026018164409
 20
646.547294167102
 10
454.0260181644068
 20
538.0618487442361
  0
LINE
  5
4538
330
18
100
AcDbEntity
  8
V25
100
AcDbLine
 10
454.0260181644068
 20
538.0618487442361
 30
0.0
 11
335.8065378205532
 21
538.0618487442363
 31
0.0
  0
LINE
  5
453B
330
18
100
AcDbEntity
  8
V25
  6
Continuous
100
AcDbLine
 10
856.6374552018203
 20
529.7569399402872
 30
0.0
 11
343.1267746277913
 21
530.1940455418349
 31
0.0
  0
ARC
  5
453C
330
18
100
AcDbEntity
  8
V25
  6
Continuous
100
AcDbCircle
 10
343.1369891481836
 20
542.1940411944831
 30
0.0
 40
12.00000000000009
100
AcDbArc
 50
180.0
 51
269.9512292517582
  0
LINE
  5
453D
330
18
100
AcDbEntity
  8
V25
  6
Continuous
100
AcDbLine
 10
331.1369891481835
 20
542.1940411944831
 30
0.0
 11
331.1369891481835
 21
623.3928159968686
 31
0.0
  0
LINE
  5
453E
330
18
100
AcDbEntity
  8
V25
  6
Continuous
100
AcDbLine
 10
331.1369891481835
 20
623.3928159968686
 30
0.0
 11
325.3255613313762
 21
640.3350459514416
 31
0.0
  0
LINE
  5
453F
330
18
100
AcDbEntity
  8
V25
  6
Continuous
100
AcDbLine
 10
325.3255613313762
 20
640.3350459514416
 30
0.0
 11
325.3255613313762
 21
757.5883114186885
 31
0.0
  0
LINE
  5
4540
330
18
100
AcDbEntity
  8
V25
  6
Continuous
100
AcDbLine
 10
856.6374552018203
 20
533.7569413894051
 30
0.0
 11
343.1301794679221
 21
534.1940440927177
 31
0.0
  0
ARC
  5
4541
330
18
100
AcDbEntity
  8
V25
  6
Continuous
100
AcDbCircle
 10
343.1369891481836
 20
542.1940411944831
 30
0.0
 40
8.000000000000019
100
AcDbArc
 50
180.0
 51
269.9512292517584
  0
LINE
  5
4542
330
18
100
AcDbEntity
  8
V25
  6
Continuous
100
AcDbLine
 10
335.1369891481835
 20
542.1940411944831
 30
0.0
 11
335.1369891481834
 21
623.8300892989087
 31
0.0
  0
LINE
  5
4543
330
18
100
AcDbEntity
  8
V25
  6
Continuous
100
AcDbLine
 10
335.1369891481834
 20
623.8300892989087
 30
0.0
 11
329.3255613313763
 21
640.7723192534818
 31
0.0
  0
LINE
  5
4544
330
18
100
AcDbEntity
  8
V25
  6
Continuous
100
AcDbLine
 10
329.3255613313763
 20
640.7723192534818
 30
0.0
 11
329.3255613313762
 21
757.5883114186885
 31
0.0
  0
LINE
  5
454B
330
18
100
AcDbEntity
  8
V25
100
AcDbLine
 10
454.0260181644073
 20
651.1958682675271
 30
0.0
 11
454.0260181644092
 21
756.1958682675273
 31
0.0
  0
LINE
  5
454C
330
18
100
AcDbEntity
  8
V25
100
AcDbLine
 10
454.0260181644092
 20
756.1958682675273
 30
0.0
 11
335.192951286664
 21
756.1958682675273
 31
0.0
  0
LINE
  5
454D
330
18
100
AcDbEntity
  8
V25
100
AcDbLine
 10
335.192951286664
 20
756.1958682675273
 30
0.0
 11
335.1929512866612
 21
651.1958682675275
 31
0.0
  0
LINE
  5
454E
330
18
100
AcDbEntity
  8
V25
100
AcDbLine
 10
335.1929512866612
 20
651.1958682675275
 30
0.0
 11
454.0260181644073
 21
651.1958682675271
 31
0.0
  0
LWPOLYLINE
  5
454F
330
18
100
AcDbEntity
  8
V5
  6
GESTRICHELT
 48
5.0
100
AcDbPolyline
 90
        6
 70
     0
 43
4.0
 10
856.6374552018203
 20
531.7569406648462
 10
343.1284770478567
 20
532.1940448172763
 42
-0.4139642706668577
 10
333.1369891481835
 20
542.1940411944831
 10
333.1369891481835
 20
623.6114526478886
 10
327.3255613313762
 20
640.5536826024616
 10
327.3255613313762
 20
757.5883114186885
  0
LINE
  5
4552
330
18
100
AcDbEntity
  8
V25
100
AcDbLine
 10
340.0260530867366
 20
753.1958718715141
 30
0.0
 11
340.0260530867346
 21
655.058138038335
 31
0.0
  0
LINE
  5
4553
330
18
100
AcDbEntity
  8
V25
100
AcDbLine
 10
340.0260530867367
 20
643.251072458865
 30
0.0
 11
340.0260530867346
 21
541.0618494393389
 31
0.0
  0
LINE
  5
4554
330
18
100
AcDbEntity
  8
0
  6
VERDECKTX2
 48
5.0
100
AcDbLine
 10
340.0260530867346
 20
541.0618494393389
 30
0.0
 11
340.0260530867346
 21
599.880040220557
 31
0.0
  0
LINE
  5
4555
330
18
100
AcDbEntity
  8
V25
100
AcDbLine
 10
346.0260530867323
 20
753.1958718715143
 30
0.0
 11
346.0260530867303
 21
655.0581380383351
 31
0.0
  0
LINE
  5
4556
330
18
100
AcDbEntity
  8
V25
100
AcDbLine
 10
346.0260530867324
 20
643.2510724588651
 30
0.0
 11
346.0260530867303
 21
541.061849439339
 31
0.0
  0
LINE
  5
4557
330
18
100
AcDbEntity
  8
V25
100
AcDbLine
 10
352.0260492064786
 20
753.1958718715141
 30
0.0
 11
352.0260492064766
 21
655.058138038335
 31
0.0
  0
LINE
  5
4558
330
18
100
AcDbEntity
  8
V25
100
AcDbLine
 10
352.0260492064786
 20
643.251072458865
 30
0.0
 11
352.0260492064766
 21
541.0618494393389
 31
0.0
  0
LINE
  5
4559
330
18
100
AcDbEntity
  8
V25
100
AcDbLine
 10
358.0260492064742
 20
753.1958718715143
 30
0.0
 11
358.0260492064722
 21
655.0581380383351
 31
0.0
  0
LINE
  5
455A
330
18
100
AcDbEntity
  8
V25
100
AcDbLine
 10
358.0260492064743
 20
643.2510724588651
 30
0.0
 11
358.0260492064722
 21
541.061849439339
 31
0.0
  0
LINE
  5
455B
330
18
100
AcDbEntity
  8
V25
100
AcDbLine
 10
364.0260453262205
 20
753.1958718715141
 30
0.0
 11
364.0260453262185
 21
655.058138038335
 31
0.0
  0
LINE
  5
455C
330
18
100
AcDbEntity
  8
V25
100
AcDbLine
 10
364.0260453262205
 20
643.251072458865
 30
0.0
 11
364.0260453262185
 21
541.0618494393389
 31
0.0
  0
LINE
  5
455D
330
18
100
AcDbEntity
  8
V25
100
AcDbLine
 10
370.0260453262162
 20
753.1958718715143
 30
0.0
 11
370.0260453262142
 21
655.0581380383351
 31
0.0
  0
LINE
  5
455E
330
18
100
AcDbEntity
  8
V25
100
AcDbLine
 10
370.0260453262162
 20
643.2510724588651
 30
0.0
 11
370.0260453262142
 21
541.061849439339
 31
0.0
  0
LINE
  5
455F
330
18
100
AcDbEntity
  8
V25
100
AcDbLine
 10
376.0260414459623
 20
753.1958718715141
 30
0.0
 11
376.0260414459603
 21
655.058138038335
 31
0.0
  0
LINE
  5
4560
330
18
100
AcDbEntity
  8
V25
100
AcDbLine
 10
376.0260414459623
 20
643.251072458865
 30
0.0
 11
376.0260414459603
 21
541.0618494393389
 31
0.0
  0
LINE
  5
4561
330
18
100
AcDbEntity
  8
V25
100
AcDbLine
 10
382.026041445958
 20
753.1958718715143
 30
0.0
 11
382.026041445956
 21
655.0581380383351
 31
0.0
  0
LINE
  5
4562
330
18
100
AcDbEntity
  8
V25
100
AcDbLine
 10
382.026041445958
 20
643.2510724588651
 30
0.0
 11
382.026041445956
 21
541.061849439339
 31
0.0
  0
LINE
  5
4563
330
18
100
AcDbEntity
  8
V25
100
AcDbLine
 10
388.0260375657041
 20
753.1958718715141
 30
0.0
 11
388.0260375657021
 21
655.058138038335
 31
0.0
  0
LINE
  5
4564
330
18
100
AcDbEntity
  8
V25
100
AcDbLine
 10
388.0260375657042
 20
643.251072458865
 30
0.0
 11
388.0260375657021
 21
541.0618494393389
 31
0.0
  0
LINE
  5
4565
330
18
100
AcDbEntity
  8
V25
100
AcDbLine
 10
394.0260375656998
 20
753.1958718715143
 30
0.0
 11
394.0260375656978
 21
655.0581380383351
 31
0.0
  0
LINE
  5
4566
330
18
100
AcDbEntity
  8
V25
100
AcDbLine
 10
394.0260375656998
 20
643.2510724588651
 30
0.0
 11
394.0260375656978
 21
541.061849439339
 31
0.0
  0
LINE
  5
4567
330
18
100
AcDbEntity
  8
V25
100
AcDbLine
 10
400.0260336854459
 20
753.1958718715141
 30
0.0
 11
400.026033685444
 21
655.058138038335
 31
0.0
  0
LINE
  5
4568
330
18
100
AcDbEntity
  8
V25
100
AcDbLine
 10
400.026033685446
 20
643.251072458865
 30
0.0
 11
400.026033685444
 21
541.0618494393389
 31
0.0
  0
LINE
  5
4569
330
18
100
AcDbEntity
  8
V25
100
AcDbLine
 10
406.0260336854416
 20
753.1958718715143
 30
0.0
 11
406.0260336854397
 21
655.0581380383351
 31
0.0
  0
LINE
  5
456A
330
18
100
AcDbEntity
  8
V25
100
AcDbLine
 10
406.0260336854417
 20
643.2510724588651
 30
0.0
 11
406.0260336854397
 21
541.061849439339
 31
0.0
  0
LINE
  5
456B
330
18
100
AcDbEntity
  8
V25
100
AcDbLine
 10
412.0260298051879
 20
753.1958718715141
 30
0.0
 11
412.0260298051859
 21
655.058138038335
 31
0.0
  0
LINE
  5
456C
330
18
100
AcDbEntity
  8
V25
100
AcDbLine
 10
412.026029805188
 20
643.251072458865
 30
0.0
 11
412.0260298051859
 21
541.0618494393389
 31
0.0
  0
LINE
  5
456D
330
18
100
AcDbEntity
  8
V25
100
AcDbLine
 10
418.0260298051836
 20
753.1958718715143
 30
0.0
 11
418.0260298051816
 21
655.0581380383351
 31
0.0
  0
LINE
  5
456E
330
18
100
AcDbEntity
  8
V25
100
AcDbLine
 10
418.0260298051837
 20
643.2510724588651
 30
0.0
 11
418.0260298051816
 21
541.061849439339
 31
0.0
  0
LINE
  5
456F
330
18
100
AcDbEntity
  8
V25
100
AcDbLine
 10
424.0260259249297
 20
753.1958718715141
 30
0.0
 11
424.0260259249277
 21
655.058138038335
 31
0.0
  0
LINE
  5
4570
330
18
100
AcDbEntity
  8
V25
100
AcDbLine
 10
424.0260259249297
 20
643.251072458865
 30
0.0
 11
424.0260259249277
 21
541.0618494393389
 31
0.0
  0
LINE
  5
4571
330
18
100
AcDbEntity
  8
V25
100
AcDbLine
 10
430.0260259249254
 20
753.1958718715143
 30
0.0
 11
430.0260259249234
 21
655.0581380383351
 31
0.0
  0
LINE
  5
4572
330
18
100
AcDbEntity
  8
V25
100
AcDbLine
 10
430.0260259249254
 20
643.2510724588651
 30
0.0
 11
430.0260259249234
 21
541.061849439339
 31
0.0
  0
LINE
  5
4573
330
18
100
AcDbEntity
  8
V25
100
AcDbLine
 10
436.0260220446715
 20
753.1958718715141
 30
0.0
 11
436.0260220446695
 21
655.058138038335
 31
0.0
  0
LINE
  5
4574
330
18
100
AcDbEntity
  8
V25
100
AcDbLine
 10
436.0260220446716
 20
643.251072458865
 30
0.0
 11
436.0260220446695
 21
541.0618494393389
 31
0.0
  0
LINE
  5
4575
330
18
100
AcDbEntity
  8
V25
100
AcDbLine
 10
442.0260220446672
 20
753.1958718715143
 30
0.0
 11
442.0260220446652
 21
655.0581380383351
 31
0.0
  0
LINE
  5
4576
330
18
100
AcDbEntity
  8
V25
100
AcDbLine
 10
442.0260220446673
 20
643.2510724588651
 30
0.0
 11
442.0260220446652
 21
541.061849439339
 31
0.0
  0
LINE
  5
4577
330
18
100
AcDbEntity
  8
V25
100
AcDbLine
 10
448.0260181644134
 20
753.1958718715141
 30
0.0
 11
448.0260181644115
 21
655.058138038335
 31
0.0
  0
LINE
  5
4578
330
18
100
AcDbEntity
  8
V25
100
AcDbLine
 10
448.0260181644135
 20
643.251072458865
 30
0.0
 11
448.0260181644115
 21
541.0618494393389
 31
0.0
  0
ARC
  5
4579
330
18
100
AcDbEntity
  8
ISOTRI46
100
AcDbCircle
 10
445.0260181644073
 20
541.0618487442355
 30
0.0
 40
3.0
100
AcDbArc
 50
270.0000370537325
 51
0.0000132755010465
  0
ARC
  5
457A
330
18
100
AcDbEntity
  8
ISOTRI46
100
AcDbCircle
 10
445.0260220446652
 20
541.0618487442355
 30
0.0
 40
3.0
100
AcDbArc
 50
179.999986724499
 51
269.9999629462675
  0
INSERT
  5
457D
330
18
100
AcDbEntity
  8
INSULATION
  6
VERDECKTX2
 48
5.0
100
AcDbBlockReference
  2
DAEMM
 10
514.1317145200892
 20
540.0076034466624
 30
0.0
 41
14.12121366298583
 42
13.35002208502328
 43
14.12121366298583
  0
INSERT
  5
457E
330
18
100
AcDbEntity
  8
INSULATION
  6
VERDECKTX2
 48
5.0
100
AcDbBlockReference
  2
DAEMM
 10
570.6165691720325
 20
540.0076034466624
 30
0.0
 41
14.12121366298583
 42
13.35002208502328
 43
14.12121366298583
  0
INSERT
  5
457F
330
18
100
AcDbEntity
  8
INSULATION
  6
VERDECKTX2
 48
5.0
100
AcDbBlockReference
  2
DAEMM
 10
627.1014238239758
 20
540.0076034466624
 30
0.0
 41
14.12121366298583
 42
13.35002208502328
 43
14.12121366298583
  0
INSERT
  5
4580
330
18
100
AcDbEntity
  8
INSULATION
  6
VERDECKTX2
 48
5.0
100
AcDbBlockReference
  2
DAEMM
 10
683.5862784759192
 20
540.0076034466624
 30
0.0
 41
14.12121366298583
 42
13.35002208502328
 43
14.12121366298583
  0
LINE
  5
4590
330
18
100
AcDbEntity
  8
V5
100
AcDbLine
 10
812.8922026188497
 20
1147.320353145092
 30
0.0
 11
812.8922026188497
 21
1147.320353145092
 31
0.0
  0
LINE
  5
4592
330
18
100
AcDbEntity
  8
V5
100
AcDbLine
 10
769.0887418490068
 20
1146.152469481608
 30
0.0
 11
769.0887418490068
 21
1285.265548094254
 31
0.0
  0
LINE
  5
4593
330
18
100
AcDbEntity
  8
V5
100
AcDbLine
 10
769.0887418490068
 20
1285.265548094254
 30
0.0
 11
779.695343566805
 21
1274.658946376456
 31
0.0
  0
INSERT
  5
4596
330
18
100
AcDbEntity
  8
V35
  6
AUSGEZOGEN
 62
     6
 48
10.0
100
AcDbBlockReference
  2
e140
 10
926.2186854704692
 20
1006.973058331208
 30
0.0
  0
LWPOLYLINE
  5
4597
330
18
100
AcDbEntity
  8
V5
100
AcDbPolyline
 90
       14
 70
     0
 43
0.0
 10
921.2921626689171
 20
1190.267565126911
 42
-0.8518717637873161
 10
928.0200256178222
 20
1210.58048785784
 42
-0.3441842485073744
 10
931.3676289698818
 20
1206.969929292561
 10
931.397334359738
 20
1206.614525172227
 42
0.3077507175483973
 10
934.2424963335647
 20
1203.130692914723
 42
-0.3559174951861054
 10
937.0883191859029
 20
1198.953579933961
 42
-0.2401758746392449
 10
931.8828025916646
 20
1190.599475459226
 42
0.2629884054316376
 10
930.4307020626165
 20
1188.029649156177
 10
930.4307020626467
 20
1156.290264817397
 42
0.2931365125316157
 10
931.0250020313233
 20
1155.378589062111
 10
931.2892502526704
 20
1155.258328565267
 42
-0.2939859278524366
 10
934.511014456997
 20
1150.252467855675
 42
0.4142135623730951
 10
938.6110144569968
 20
1146.152467855674
 10
990.250318119588
 20
1146.152467855674
  0
ELLIPSE
  5
459C
330
18
100
AcDbEntity
  8
INSULATION
100
AcDbEllipse
 10
953.6546896910913
 20
1035.39908096429
 30
0.0
 11
28.24242732597222
 21
0.0000000000001522
 31
0.0
210
0.0
220
0.0
230
1.0
 40
0.9453877268365385
 41
4.712388980384688
 42
6.646153955785226
  0
LINE
  5
459D
330
18
100
AcDbEntity
  8
INSULATION
100
AcDbLine
 10
980.057035970166
 20
1044.87895903368
 30
0.0
 11
955.4947707379882
 21
1106.01933540504
 31
0.0
  0
ELLIPSE
  5
459E
330
18
100
AcDbEntity
  8
INSULATION
100
AcDbEllipse
 10
981.897117017063
 20
1115.499213474429
 30
0.0
 11
28.24242732597199
 21
0.0000000000013814
 31
0.0
210
0.0
220
0.0
230
1.0
 40
0.9453877268365385
 41
1.270537128935615
 42
3.504561302195381
  0
LINE
  5
459F
330
18
100
AcDbEntity
  8
INSULATION
100
AcDbLine
 10
990.250318119588
 20
1061.091413698948
 30
0.0
 11
983.7371980639598
 21
1044.87895903368
 31
0.0
  0
ELLIPSE
  5
45A0
330
18
100
AcDbEntity
  8
INSULATION
100
AcDbEllipse
 10
1010.139544343035
 20
1035.39908096429
 30
0.0
 11
-28.24242732597222
 21
0.0000000000001397
 31
0.0
210
0.0
220
0.0
230
1.0
 40
0.9453877268365385
 41
-0.3629686486056405
 42
0.7894552416174882
  0
LINE
  5
45A2
330
18
100
AcDbEntity
  8
0
 62
     0
380
     1
100
AcDbLine
 10
743.7591427279286
 20
1299.483301653129
 30
0.0
 11
743.7591427279286
 21
1299.483301653129
 31
0.0
  0
LINE
  5
45A3
330
18
100
AcDbEntity
  8
0
 62
     0
380
     1
100
AcDbLine
 10
751.5716427279286
 20
1315.108301653129
 30
0.0
 11
751.5716427279286
 21
1315.108301653129
 31
0.0
  0
LINE
  5
45A4
330
18
100
AcDbEntity
  8
0
 62
     0
380
     1
100
AcDbLine
 10
743.7591427279286
 20
1330.733301653129
 30
0.0
 11
743.7591427279286
 21
1330.733301653129
 31
0.0
  0
LWPOLYLINE
  5
45A5
330
18
100
AcDbEntity
  8
V5
100
AcDbPolyline
 90
       15
 70
     0
 43
0.0
 10
769.088741849007
 20
1146.152469481608
 10
815.3492335934025
 20
1146.152469481608
 42
0.2446984432290357
 10
818.7077561253209
 20
1147.900805724763
 10
821.3731661253209
 20
1151.707404724762
 42
-0.5205670505517466
 10
830.3838386124999
 20
1151.707403466636
 10
833.0492476124998
 20
1147.900804466635
 42
0.2446984432290353
 10
836.4077709940847
 20
1146.152467855674
 10
913.9717949562054
 20
1146.152467855674
 42
0.4142135623731031
 10
918.0716949562054
 20
1150.252367855674
 42
-0.2939817751607098
 10
921.2934591617601
 20
1155.258328565267
 10
921.5577073831072
 20
1155.378589062111
 42
0.2931365125316157
 10
922.1520073517838
 20
1156.290264817397
 10
922.1520073518123
 20
1183.345833999533
 42
0.2992947414849744
 10
920.3411122766683
 20
1186.100108763913
 42
-3.892127811935753
 10
934.7478683217678
 20
1187.47899956132
  0
LINE
  5
45A6
330
18
100
AcDbEntity
  8
V25
100
AcDbLine
 10
892.1881453786404
 20
1008.478651570048
 30
0.0
 11
773.9686650347866
 21
1008.478651570048
 31
0.0
  0
LINE
  5
45A9
330
18
100
AcDbEntity
  8
ACHS
  6
VERDECKTX2
 48
5.0
100
AcDbLine
 10
778.1881803009702
 20
1138.655802819703
 30
0.0
 11
778.1881803009682
 21
1011.47865226515
 31
0.0
  0
LINE
  5
45AA
330
18
100
AcDbEntity
  8
ACHS
  6
VERDECKTX2
 48
5.0
100
AcDbLine
 10
784.1881803009658
 20
1138.655802819703
 30
0.0
 11
784.1881803009638
 21
1011.47865226515
 31
0.0
  0
LINE
  5
45AB
330
18
100
AcDbEntity
  8
ACHS
  6
VERDECKTX2
 48
5.0
100
AcDbLine
 10
790.188176420712
 20
1138.655802819703
 30
0.0
 11
790.1881764207099
 21
1011.47865226515
 31
0.0
  0
LINE
  5
45AC
330
18
100
AcDbEntity
  8
ACHS
  6
VERDECKTX2
 48
5.0
100
AcDbLine
 10
796.1881764207077
 20
1138.655802819703
 30
0.0
 11
796.1881764207056
 21
1011.47865226515
 31
0.0
  0
LINE
  5
45AD
330
18
100
AcDbEntity
  8
ACHS
  6
VERDECKTX2
 48
5.0
100
AcDbLine
 10
802.1881725404538
 20
1138.655802819703
 30
0.0
 11
802.1881725404519
 21
1011.47865226515
 31
0.0
  0
LINE
  5
45AE
330
18
100
AcDbEntity
  8
ACHS
  6
VERDECKTX2
 48
5.0
100
AcDbLine
 10
808.1881725404496
 20
1138.655802819703
 30
0.0
 11
808.1881725404475
 21
1011.47865226515
 31
0.0
  0
LINE
  5
45AF
330
18
100
AcDbEntity
  8
ACHS
  6
VERDECKTX2
 48
5.0
100
AcDbLine
 10
814.1881686601958
 20
1138.655802819703
 30
0.0
 11
814.1881686601937
 21
1011.47865226515
 31
0.0
  0
LINE
  5
45B0
330
18
100
AcDbEntity
  8
ACHS
  6
VERDECKTX2
 48
5.0
100
AcDbLine
 10
820.1881686601915
 20
1138.655802819703
 30
0.0
 11
820.1881686601895
 21
1011.47865226515
 31
0.0
  0
LINE
  5
45B1
330
18
100
AcDbEntity
  8
ACHS
  6
VERDECKTX2
 48
5.0
100
AcDbLine
 10
826.1881647799377
 20
1138.655802819703
 30
0.0
 11
826.1881647799356
 21
1011.47865226515
 31
0.0
  0
LINE
  5
45B2
330
18
100
AcDbEntity
  8
ACHS
  6
VERDECKTX2
 48
5.0
100
AcDbLine
 10
832.1881647799333
 20
1138.655802819703
 30
0.0
 11
832.1881647799312
 21
1011.47865226515
 31
0.0
  0
LINE
  5
45B3
330
18
100
AcDbEntity
  8
ACHS
  6
VERDECKTX2
 48
5.0
100
AcDbLine
 10
838.1881608996794
 20
1138.655802819703
 30
0.0
 11
838.1881608996774
 21
1011.47865226515
 31
0.0
  0
LINE
  5
45B4
330
18
100
AcDbEntity
  8
ACHS
  6
VERDECKTX2
 48
5.0
100
AcDbLine
 10
844.1881608996752
 20
1138.655802819703
 30
0.0
 11
844.188160899673
 21
1011.47865226515
 31
0.0
  0
LINE
  5
45B5
330
18
100
AcDbEntity
  8
ACHS
  6
VERDECKTX2
 48
5.0
100
AcDbLine
 10
850.1881570194214
 20
1138.655802819703
 30
0.0
 11
850.1881570194193
 21
1011.47865226515
 31
0.0
  0
LINE
  5
45B6
330
18
100
AcDbEntity
  8
ACHS
  6
VERDECKTX2
 48
5.0
100
AcDbLine
 10
856.188157019417
 20
1138.655802819703
 30
0.0
 11
856.1881570194151
 21
1011.47865226515
 31
0.0
  0
LINE
  5
45B7
330
18
100
AcDbEntity
  8
ACHS
  6
VERDECKTX2
 48
5.0
100
AcDbLine
 10
862.1881531391633
 20
1138.655802819703
 30
0.0
 11
862.1881531391613
 21
1011.47865226515
 31
0.0
  0
LINE
  5
45B8
330
18
100
AcDbEntity
  8
ACHS
  6
VERDECKTX2
 48
5.0
100
AcDbLine
 10
868.188153139159
 20
1138.655802819703
 30
0.0
 11
868.1881531391569
 21
1011.47865226515
 31
0.0
  0
LINE
  5
45B9
330
18
100
AcDbEntity
  8
ACHS
  6
VERDECKTX2
 48
5.0
100
AcDbLine
 10
874.1881492589051
 20
1138.655802819703
 30
0.0
 11
874.188149258903
 21
1011.47865226515
 31
0.0
  0
LINE
  5
45BA
330
18
100
AcDbEntity
  8
ACHS
  6
VERDECKTX2
 48
5.0
100
AcDbLine
 10
880.1881492589007
 20
1138.655802819703
 30
0.0
 11
880.1881492588988
 21
1011.47865226515
 31
0.0
  0
LINE
  5
45BB
330
18
100
AcDbEntity
  8
ACHS
  6
VERDECKTX2
 48
5.0
100
AcDbLine
 10
886.188145378647
 20
1138.655802819703
 30
0.0
 11
886.1881453786448
 21
1011.47865226515
 31
0.0
  0
ELLIPSE
  5
45BC
330
18
100
AcDbEntity
  8
INSULATION
  6
VERDECKT
 48
3.0
100
AcDbEllipse
 10
897.1698350391479
 20
1035.39908096429
 30
0.0
 11
28.24242732597222
 21
0.0000000000001522
 31
0.0
210
0.0
220
0.0
230
1.0
 40
0.9453877268365385
 41
4.712388980384688
 42
6.646153955785226
  0
LINE
  5
45BD
330
18
100
AcDbEntity
  8
INSULATION
  6
VERDECKT
 48
3.0
100
AcDbLine
 10
923.5721813182227
 20
1044.87895903368
 30
0.0
 11
913.4807607350564
 21
1069.998517296904
 31
0.0
  0
ELLIPSE
  5
45BE
330
18
100
AcDbEntity
  8
INSULATION
100
AcDbEllipse
 10
925.4122623651197
 20
1115.499213474429
 30
0.0
 11
28.24242732597199
 21
0.0000000000013814
 31
0.0
210
0.0
220
0.0
230
1.0
 40
0.9453877268365385
 41
-0.3629686486056918
 42
3.504561302195381
  0
LINE
  5
45BF
330
18
100
AcDbEntity
  8
INSULATION
100
AcDbLine
 10
951.8146086441943
 20
1106.01933540504
 30
0.0
 11
940.1149121410309
 21
1076.896457654457
 31
0.0
  0
ELLIPSE
  5
45C0
330
18
100
AcDbEntity
  8
INSULATION
  6
VERDECKT
 48
3.0
100
AcDbEllipse
 10
953.6546896910914
 20
1035.39908096429
 30
0.0
 11
-28.24242732597222
 21
0.0000000000001397
 31
0.0
210
0.0
220
0.0
230
1.0
 40
0.9453877268365385
 41
-0.3629686486056405
 42
1.570796326794896
  0
LINE
  5
45C1
330
18
100
AcDbEntity
  8
INSULATION
100
AcDbLine
 10
911.568115382429
 20
1074.75947299945
 30
0.0
 11
899.0099160860449
 21
1106.01933540504
 31
0.0
  0
LINE
  5
45C2
330
18
100
AcDbEntity
  8
INSULATION
  6
VERDECKT
 48
3.0
100
AcDbLine
 10
938.8310958069324
 20
1073.700782780152
 30
0.0
 11
927.2523434120165
 21
1044.87895903368
 31
0.0
  0
ELLIPSE
  5
45C3
330
18
100
AcDbEntity
  8
INSULATION
  6
VERDECKT
 48
3.0
100
AcDbEllipse
 10
457.6468598681457
 20
566.7076476167094
 30
0.0
 11
-28.24242732597213
 21
0.00000000000024
 31
0.0
210
0.0
220
0.0
230
1.0
 40
0.9453877268365417
 41
1.570796326794908
 42
3.504561302195442
  0
LINE
  5
45C4
330
18
100
AcDbEntity
  8
INSULATION
  6
VERDECKT
 48
3.0
100
AcDbLine
 10
484.0492061472205
 20
576.1875256860988
 30
0.0
 11
472.688011797092
 21
604.4678040736568
 31
0.0
  0
ELLIPSE
  5
45C5
330
18
100
AcDbEntity
  8
INSULATION
100
AcDbEllipse
 10
485.8892871941175
 20
646.807780126848
 30
0.0
 11
28.24242732597193
 21
0.0000000000006978
 31
0.0
210
0.0
220
0.0
230
1.0
 40
0.9453877268365443
 41
-0.3629686486056647
 42
3.504561302195404
  0
LINE
  5
45C6
330
18
100
AcDbEntity
  8
INSULATION
100
AcDbLine
 10
512.2916334731922
 20
637.3279020574586
 30
0.0
 11
498.7637107850498
 21
603.6542047474833
 31
0.0
  0
ELLIPSE
  5
45C7
330
18
100
AcDbEntity
  8
INSULATION
  6
VERDECKT
 48
3.0
100
AcDbEllipse
 10
514.1317145200893
 20
566.7076476167094
 30
0.0
 11
28.24242732597215
 21
0.0000000000007793
 31
0.0
210
0.0
220
0.0
230
1.0
 40
0.945387726836541
 41
2.778624004984122
 42
4.712388980384659
  0
ELLIPSE
  5
45C8
330
18
100
AcDbEntity
  8
INSULATION
100
AcDbEllipse
 10
740.0711331278625
 20
566.7076476167094
 30
0.0
 11
-28.24242732597219
 21
0.0000000000002839
 31
0.0
210
0.0
220
0.0
230
1.0
 40
0.9453877268365397
 41
1.570796326794909
 42
3.504561302195444
  0
LINE
  5
45C9
330
18
100
AcDbEntity
  8
INSULATION
100
AcDbLine
 10
766.4734794069373
 20
576.1875256860988
 30
0.0
 11
741.9112141747595
 21
637.3279020574586
 31
0.0
  0
ELLIPSE
  5
45CA
330
18
100
AcDbEntity
  8
INSULATION
  6
VERDECKT
 48
3.0
100
AcDbEllipse
 10
768.3135604538342
 20
646.807780126848
 30
0.0
 11
28.24242732597197
 21
0.0000000000014002
 31
0.0
210
0.0
220
0.0
230
1.0
 40
0.9453877268365431
 41
-0.3629686486056911
 42
0.7421575283399228
  0
LINE
  5
45CB
330
18
100
AcDbEntity
  8
INSULATION
  6
VERDECKT
 48
3.0
100
AcDbLine
 10
794.7159067329089
 20
637.3279020574586
 30
0.0
 11
770.1536415007312
 21
576.1875256860988
 31
0.0
  0
ELLIPSE
  5
45CC
330
18
100
AcDbEntity
  8
INSULATION
  6
VERDECKT
 48
3.0
100
AcDbEllipse
 10
796.555987779806
 20
566.7076476167094
 30
0.0
 11
28.2424273259722
 21
0.0000000000002714
 31
0.0
210
0.0
220
0.0
230
1.0
 40
0.9453877268365395
 41
2.778624004984141
 42
4.712388980384676
  0
LINE
  5
45CD
330
18
100
AcDbEntity
  8
INSULATION
100
AcDbLine
 10
470.8116095892466
 20
609.1385433612296
 30
0.0
 11
459.4869409150428
 21
637.3279020574586
 31
0.0
  0
LINE
  5
45CE
330
18
100
AcDbEntity
  8
INSULATION
  6
VERDECKT
 48
3.0
100
AcDbLine
 10
497.7469972871078
 20
601.1234020980366
 30
0.0
 11
487.7293682410145
 21
576.1875256860988
 31
0.0
  0
ELLIPSE
  5
45CF
330
18
100
AcDbEntity
  8
INSULATION
100
AcDbEllipse
 10
768.3135604538342
 20
646.807780126848
 30
0.0
 11
28.24242732597197
 21
0.0000000000014002
 31
0.0
210
0.0
220
0.0
230
1.0
 40
0.9453877268365431
 41
0.8927845985218784
 42
3.504561302195378
  0
ELLIPSE
  5
45D0
330
18
100
AcDbEntity
  8
INSULATION
100
AcDbEllipse
 10
796.5559877798058
 20
566.7076476167094
 30
0.0
 11
-28.24242732597219
 21
0.0000000000002839
 31
0.0
210
0.0
220
0.0
230
1.0
 40
0.9453877268365397
 41
1.570796326794909
 42
1.80922266229753
  0
LINE
  5
45D1
330
18
100
AcDbEntity
  8
INSULATION
100
AcDbLine
 10
822.9583340588806
 20
576.1875256860988
 30
0.0
 11
798.3960688267028
 21
637.3279020574586
 31
0.0
  0
ELLIPSE
  5
45D2
330
18
100
AcDbEntity
  8
INSULATION
100
AcDbEllipse
 10
824.7984151057776
 20
646.807780126848
 30
0.0
 11
28.24242732597197
 21
0.0000000000014002
 31
0.0
210
0.0
220
0.0
230
1.0
 40
0.9453877268365431
 41
-0.3629686486056911
 42
3.504561302195378
  0
LINE
  5
45D3
330
18
100
AcDbEntity
  8
INSULATION
100
AcDbLine
 10
851.2007613848522
 20
637.3279020574586
 30
0.0
 11
826.6384961526744
 21
576.1875256860988
 31
0.0
  0
ELLIPSE
  5
45D4
330
18
100
AcDbEntity
  8
INSULATION
100
AcDbEllipse
 10
853.0408424317494
 20
566.7076476167094
 30
0.0
 11
28.2424273259722
 21
0.0000000000002714
 31
0.0
210
0.0
220
0.0
230
1.0
 40
0.9453877268365395
 41
2.778624004984141
 42
4.712388980384676
  0
ELLIPSE
  5
45D5
330
18
100
AcDbEntity
  8
INSULATION
100
AcDbEllipse
 10
796.5559877798058
 20
566.7076476167094
 30
0.0
 11
-28.24242732597219
 21
0.0000000000002839
 31
0.0
210
0.0
220
0.0
230
1.0
 40
0.9453877268365397
 41
2.455471625821374
 42
3.504561302195444
  0
ELLIPSE
  5
45D6
330
18
100
AcDbEntity
  8
INSULATION
100
AcDbEllipse
 10
796.5559877798058
 20
566.7076476167094
 30
0.0
 11
-28.24242732597219
 21
0.0000000000002839
 31
0.0
210
0.0
220
0.0
230
1.0
 40
0.9453877268365397
 41
2.028649770734641
 42
2.270542549299348
  0
LINE
  5
4DD1
330
18
100
AcDbEntity
  8
TXT-D
100
AcDbLine
 10
515.3429955373976
 20
967.9130408272262
 30
0.0
 11
422.629445639284
 21
967.9130408272266
 31
0.0
  0
LINE
  5
4DD2
330
18
100
AcDbEntity
  8
TXT-D
100
AcDbLine
 10
330.3671480044713
 20
905.3557392002719
 30
0.0
 11
422.629445639284
 21
967.9130408272266
 31
0.0
  0
TEXT
  5
4DD3
330
18
100
AcDbEntity
  8
TXT-D
 62
     7
100
AcDbText
 10
518.8950203603856
 20
961.821526712757
 30
0.0
 40
14.0
  1
oplechování
  7
ROMANS
100
AcDbText
  0
LWPOLYLINE
  5
4DD4
330
18
100
AcDbEntity
  8
V5
100
AcDbPolyline
 90
        4
 70
     0
 43
2.0
 10
323.9870409876598
 20
1012.934391120138
 10
323.9870409876598
 20
973.2274097610218
 10
344.232766085976
 20
973.2274097610218
 10
344.232766085976
 20
933.1311442709333
  0
LINE
  5
4DD5
330
18
100
AcDbEntity
  8
V25
100
AcDbLine
 10
286.6273046091558
 20
927.8317168848106
 30
0.0
 11
332.5065808634386
 21
927.8317168848106
 31
0.0
  0
ARC
  5
4DD6
330
18
100
AcDbEntity
  8
V5
100
AcDbCircle
 10
334.8056627016709
 20
891.6587924844002
 30
0.0
 40
4.750187086732692
100
AcDbArc
 50
224.9999999999954
 51
44.99999999999539
  0
LINE
  5
4DD7
330
18
100
AcDbEntity
  8
V5
100
AcDbLine
 10
324.8758755595147
 20
909.197074169635
 30
0.0
 11
338.1645522026044
 21
895.0176819853336
 31
0.0
  0
LINE
  5
4DD8
330
18
100
AcDbEntity
  8
V5
100
AcDbLine
 10
324.8758755595147
 20
941.9411693401439
 30
0.0
 11
324.8758755595147
 21
909.197074169635
 31
0.0
  0
LINE
  5
4DD9
330
18
100
AcDbEntity
  8
V5
100
AcDbLine
 10
325.27439823298
 20
901.2643464064826
 30
0.0
 11
335.8809999507782
 21
890.6577446886844
 31
0.0
  0
LINE
  5
4DDA
330
18
100
AcDbEntity
  8
V5
100
AcDbLine
 10
331.4467732007374
 20
888.2999029834667
 30
0.0
 11
328.6826015171464
 21
891.0640746670535
 31
0.0
  0
LWPOLYLINE
  5
4DDB
330
18
100
AcDbEntity
  8
V35
100
AcDbPolyline
 90
        2
 70
     1
 43
2.9
 10
328.8171480044714
 20
905.3557392002719
 42
1.0
 10
331.9171480044713
 20
905.3557392002719
 42
1.0
  0
LINE
  5
4DDC
330
18
100
AcDbEntity
  8
V25
100
AcDbLine
 10
337.832141745414
 20
952.4533275553599
 30
0.0
 11
353.3459583322938
 21
952.4533275553599
 31
0.0
  0
LINE
  5
4DDD
330
18
100
AcDbEntity
  8
V25
100
AcDbLine
 10
284.7917950445653
 20
995.0273210954392
 30
0.0
 11
330.9951765986152
 21
995.027321095439
 31
0.0
  0
LINE
  5
4DDE
330
18
100
AcDbEntity
  8
V5
100
AcDbLine
 10
325.27439823298
 20
764.8765479536963
 30
0.0
 11
325.27439823298
 21
901.2643464064826
 31
0.0
  0
VIEWPORT
  5
2452
330
2451
100
AcDbEntity
 67
     1
  8
0
100
AcDbViewport
 10
299.8497513477314
 20
133.5615359651324
 30
0.0
 40
1019.404432631616
 41
395.9539997017009
 68
     1
 69
     1
 12
299.8497513477314
 22
133.5615359651324
 13
0.0
 23
0.0
 14
10.0
 24
10.0
 15
10.0
 25
10.0
 16
0.0
 26
0.0
 36
1.0
 17
0.0
 27
0.0
 37
0.0
 42
50.0
 43
0.0
 44
0.0
 45
395.9539997017009
 50
0.0
 51
0.0
 72
   100
 90
    32800
  1

281
     0
 71
     1
 74
     0
110
0.0
120
0.0
130
0.0
111
1.0
121
0.0
131
0.0
112
0.0
122
1.0
132
0.0
 79
     0
146
0.0
170
     0
  0
LINE
  5
2453
330
2451
100
AcDbEntity
 67
     1
  8
V5
 62
     1
100
AcDbLine
 10
7.378457057812568
 20
270.0663649349316
 30
0.0
 11
196.0315659403611
 21
270.0663649349316
 31
0.0
  0
LINE
  5
2454
330
2451
100
AcDbEntity
 67
     1
  8
V5
 62
     1
100
AcDbLine
 10
7.378457057812568
 20
20.03769334085069
 30
0.0
 11
196.031565940361
 21
20.03769334085069
 31
0.0
  0
TEXT
  5
2456
330
2451
100
AcDbEntity
 67
     1
  8
0
 62
     7
100
AcDbText
 10
7.378457057812568
 20
273.0276699878348
 30
0.0
 40
2.585627078393893
  1
Štít k atice
  7
Stil1
100
AcDbText
  0
TEXT
  5
2457
330
2451
100
AcDbEntity
 67
     1
  8
0
 62
     7
100
AcDbText
 10
7.378457057812568
 20
277.6427615215756
 30
0.0
 40
2.585627078393893
  1
Detail - Vazníková střecha
  7
Stil1
100
AcDbText
  0
LWPOLYLINE
  5
2458
102
{ACAD_REACTORS
330
2459
102
}
330
2451
100
AcDbEntity
 67
     1
  8
0
 62
     1
100
AcDbPolyline
 90
        7
 70
     1
 43
0.0
 10
171.1422090408042
 20
12.63776080342012
 10
170.2050257024468
 20
12.63776080342012
 10
170.2050257024468
 20
6.734358271736043
 42
0.3265321329225733
 10
171.3488330778545
 20
5.70730316541911
 10
172.0238877247735
 20
5.707308068730622
 10
172.0238877247735
 20
6.444913155378106
 42
-0.4142135623730951
 10
171.1422090408042
 20
7.326591839347472
  0
HATCH
  5
2459
330
2451
100
AcDbEntity
 67
     1
  8
0
 62
     1
100
AcDbHatch
 10
0.0
 20
0.0
 30
0.0
210
0.0
220
0.0
230
1.0
  2
SOLID
 70
     1
 71
     1
 91
        5
 92
        7
 72
     1
 73
     1
 93
       12
 10
171.8796336498064
 20
2.642657989685744
 42
0.0
 10
171.8796336498063
 20
3.097657989685743
 42
0.0
 10
157.5146336498063
 20
3.097657989685743
 42
-0.4142135623730816
 10
156.9946336498063
 20
3.617657989685748
 42
0.0
 10
156.9946336498063
 20
14.05618615838461
 42
-0.2659775848638894
 10
157.2513254801551
 20
14.50459312509557
 42
-0.2516648824931138
 10
171.7804130818904
 20
15.05508074642154
 42
0.0
 10
171.9804581211609
 20
15.46374562411875
 42
0.2516648824931142
 10
157.0209308317102
 20
14.89694922096762
 42
0.2659775848638745
 10
156.5396336498063
 20
14.0561861583846
 42
0.0
 10
156.5396336498064
 20
3.617657989685739
 42
0.4142135623731021
 10
157.5146336498064
 20
2.642657989685744
 42
0.0
 97
        1
330
245A
 92
       23
 72
     0
 73
     1
 93
       12
 10
160.709003277192
 20
12.41897150711669
 10
159.6804467456753
 20
12.41897150711669
 10
159.6804467456753
 20
5.707406646944892
 10
160.7090032771921
 20
5.707406646944893
 10
160.709003277192
 20
7.607080171612842
 10
161.5130431441546
 20
8.678332632823781
 10
163.4601919451483
 20
5.707406646944897
 10
164.5976752693911
 20
5.707406646944889
 10
162.1455188436231
 20
9.521003721101157
 10
164.3206192214516
 20
12.41897150711669
 10
163.1711954901292
 20
12.41897150711669
 10
160.709003277192
 20
8.991742055666072
 97
        1
330
245B
 92
       23
 72
     1
 73
     1
 93
       18
 10
165.1445005508302
 20
10.23961706042952
 42
0.0
 10
165.5281195918805
 20
9.541100142545243
 42
-0.125089082906134
 10
166.8508947376822
 20
9.896315450135563
 42
-0.2678367822511334
 10
167.6514983513533
 20
9.489295003113456
 42
-0.1602289575784415
 10
167.7751725929877
 20
8.957038322130811
 42
-0.4569276421982519
 10
167.6737361473992
 20
8.87707596321626
 42
0.0541248642832566
 10
166.8545842281447
 20
8.87465310032838
 42
0.1876748474912706
 10
165.2217741497835
 20
8.053594607004125
 42
0.1827818212654542
 10
164.9299426038108
 20
6.861926575029807
 42
0.3920539506815877
 10
166.0924338422075
 20
5.710316639618223
 42
0.0
 10
166.8156929190153
 20
5.710316639618223
 42
0.1547524270167677
 10
167.769549789679
 20
6.015676490084731
 42
-0.4453775332544872
 10
168.0864651616882
 20
6.01770787569677
 42
0.2086188919813744
 10
169.1484662592782
 20
5.700801680734331
 42
0.6162695522450458
 10
169.236042116871
 20
5.988683940491176
 42
-0.2171983840452063
 10
168.78703703196
 20
7.007375237320971
 42
0.0
 10
168.78703703196
 20
9.072944898722395
 42
0.2771818233459465
 10
167.7954665706382
 20
10.60509243797142
 42
0.2393084470231861
 97
        1
330
245D
 92
       22
 72
     1
 73
     1
 93
        8
 10
166.878374397114
 20
8.181566853410675
 42
0.0
 10
167.6403751356195
 20
8.181566853410675
 42
-0.4387538430829223
 10
167.8564356003741
 20
7.951713556446768
 42
0.0
 10
167.8564356003743
 20
7.203942434941795
 42
-0.2315738025864622
 10
167.598567576182
 20
6.646133798496991
 42
-0.2231591289144174
 10
166.4019447442666
 20
6.32785133319538
 42
-0.245125819360461
 10
165.8679663364297
 20
6.72949961092434
 42
-0.1420187448230589
 10
165.8819046685782
 20
7.550617961830791
 42
-0.2899718709828802
 97
        1
330
245C
 92
        7
 72
     1
 73
     1
 93
        7
 10
171.1422090408042
 20
12.63776080342012
 42
0.0
 10
170.2050257024468
 20
12.63776080342012
 42
0.0
 10
170.2050257024468
 20
6.734358271736073
 42
0.3265321329225785
 10
171.3488330778545
 20
5.70730316541911
 42
0.0
 10
172.0238877247735
 20
5.707308068730623
 42
0.0
 10
172.0238877247735
 20
6.444913155378106
 42
-0.4142135623730958
 10
171.1422090408042
 20
7.326591839347473
 42
0.0
 97
        1
330
2458
 75
     0
 76
     1
 47
0.2105755737740495
 98
        5
 10
169.2860972871858
 20
16.30532310860333
 10
160.2456532181561
 20
11.21360576732915
 10
166.8205216882655
 20
10.33761137006547
 10
166.8205216882655
 20
10.33761137006547
 10
170.7928380169379
 20
8.339249177091296
450
        0
451
        0
460
0.0
461
0.0
452
        0
462
0.0
453
        0
470

  0
LWPOLYLINE
  5
245A
102
{ACAD_REACTORS
330
2459
102
}
330
2451
100
AcDbEntity
 67
     1
  8
0
 62
     1
100
AcDbPolyline
 90
       12
 70
     1
 43
0.0
 10
157.5146336498064
 20
2.642657989685744
 42
-0.4142135623730951
 10
156.5396336498064
 20
3.617657989685744
 10
156.5396336498063
 20
14.05618615838464
 42
-0.2659775848638765
 10
157.0209308317103
 20
14.89694922096765
 42
-0.2516648824931137
 10
171.9804581211609
 20
15.46374562411874
 10
171.7804130818904
 20
15.05508074642154
 42
0.2516648824931138
 10
157.2513254801551
 20
14.50459312509557
 42
0.2659775848638775
 10
156.9946336498063
 20
14.05618615838464
 10
156.9946336498063
 20
3.617657989685744
 42
0.4142135623730951
 10
157.5146336498064
 20
3.097657989685743
 10
171.8796336498064
 20
3.097657989685743
 10
171.8796336498064
 20
2.642657989685744
  0
LWPOLYLINE
  5
245B
102
{ACAD_REACTORS
330
2459
102
}
330
2451
100
AcDbEntity
 67
     1
  8
0
 62
     1
100
AcDbPolyline
 90
       13
 70
     0
 43
0.0
 10
160.709003277192
 20
8.991742055666069
 10
160.709003277192
 20
12.41897150711669
 10
159.6804467456753
 20
12.41897150711669
 10
159.6804467456753
 20
5.707406646944892
 10
160.709003277192
 20
5.707406646944892
 10
160.709003277192
 20
7.6070801716128
 10
161.5130431441546
 20
8.678332632823778
 10
163.4601919451483
 20
5.707406646944896
 10
164.5976752693911
 20
5.707406646944889
 10
162.1455188436231
 20
9.521003721101163
 10
164.3206192214516
 20
12.41897150711669
 10
163.1711954901292
 20
12.41897150711668
 10
160.6977260448776
 20
8.976044799165943
  0
LWPOLYLINE
  5
245C
102
{ACAD_REACTORS
330
2459
102
}
330
2451
100
AcDbEntity
 67
     1
  8
0
 62
     1
100
AcDbPolyline
 90
        8
 70
     1
 43
0.0
 10
166.401944744267
 20
6.327851333195315
 42
-0.2451258193606399
 10
165.8679663364297
 20
6.729499610924428
 42
-0.1420187448230164
 10
165.8819046685781
 20
7.550617961830644
 42
-0.2899718709829171
 10
166.878374397114
 20
8.181566853410675
 10
167.6449213242718
 20
8.181566853410675
 42
-0.3900918559591556
 10
167.8564356003741
 20
7.982744937864822
 10
167.8564356003743
 20
7.173048935136726
 42
-0.2034436104283782
 10
167.6319582523418
 20
6.675082406628096
 42
-0.2311376311759479
  0
LWPOLYLINE
  5
245D
102
{ACAD_REACTORS
330
2459
102
}
330
2451
100
AcDbEntity
 67
     1
  8
0
 62
     1
100
AcDbPolyline
 90
       18
 70
     1
 43
0.0
 10
167.7751725929877
 20
8.957038322131019
 42
0.1602289575782981
 10
167.6514983513534
 20
9.48929500311322
 42
0.2678367822512051
 10
166.8508947376822
 20
9.896315450135563
 42
0.1250890829061368
 10
165.5281195918805
 20
9.541100142545236
 10
165.1445005508302
 20
10.23961706042952
 42
-0.2393084470231862
 10
167.7954665706382
 20
10.60509243797143
 42
-0.2771818233458632
 10
168.78703703196
 20
9.072944898722962
 10
168.78703703196
 20
6.97355132321682
 42
0.2106080285028759
 10
169.2360421168713
 20
5.988683940490972
 42
-0.655875337136226
 10
169.1296033642075
 20
5.698632480071225
 42
-0.2140955845208337
 10
168.0503005494262
 20
6.049341431860447
 42
0.3793030021024653
 10
167.769549789679
 20
6.015676490084718
 42
-0.1547524270167758
 10
166.8156929190153
 20
5.710316639618223
 10
166.0924338422075
 20
5.710316639618223
 42
-0.3920539506815679
 10
164.9299426038108
 20
6.86192657502975
 42
-0.1827818212654531
 10
165.2217741497834
 20
8.053594607004075
 42
-0.1876748474912757
 10
166.8545842281447
 20
8.874653100328377
 42
-0.0541248642832585
 10
167.6737361473992
 20
8.87707596321626
 42
0.4569276421989473
  0
HATCH
  5
245E
330
2451
100
AcDbEntity
 67
     1
  8
0
 62
     1
100
AcDbHatch
 10
0.0
 20
0.0
 30
0.0
210
0.0
220
0.0
230
1.0
  2
SOLID
 70
     1
 71
     1
 91
        9
 92
       23
 72
     1
 73
     1
 93
       12
 10
172.5653492253768
 20
10.77490737173337
 42
0.0
 10
172.5653492253769
 20
9.815300931198191
 42
0.0
 10
175.0872837779416
 20
9.815300931198191
 42
-0.7299518516212804
 10
175.1617893235822
 20
9.676068307280827
 42
0.0
 10
172.4914556324585
 20
6.020268981102183
 42
0.50718022741599
 10
172.644211845655
 20
5.707312574502982
 42
0.0
 10
176.8000291350547
 20
5.707342760602259
 42
0.0
 10
176.8000291350547
 20
6.670566757922292
 42
0.0
 10
174.218227789512
 20
6.670566757922292
 42
-0.6989832493953289
 10
174.1827769958388
 20
6.747219420546859
 42
0.0
 10
176.7537482928729
 20
10.30088496212113
 42
0.0
 10
176.753748292873
 20
10.77490737173337
 42
0.0
 97
        1
330
2460
 92
       23
 72
     0
 73
     1
 93
        6
 10
178.9666074401292
 20
10.76669905952824
 10
177.2426526430076
 20
10.76669905952825
 10
177.2426526430076
 20
9.838115706771706
 10
177.8903677725763
 20
9.838115706771713
 10
177.8903677725763
 20
5.707350680361073
 10
178.9666074401292
 20
5.707358497710934
 97
        1
330
2461
 92
       23
 72
     1
 73
     1
 93
       11
 10
180.1922008356549
 20
3.799755387185153
 42
0.0
 10
181.349217316878
 20
3.799755387185154
 42
0.0
 10
181.3492173168779
 20
5.717742550126925
 42
-0.5640200146066899
 10
181.4641258853013
 20
5.804282531762956
 42
0.1631429899295819
 10
183.1864652238147
 20
5.705950674351199
 42
0.2143211476369445
 10
184.5317686669931
 20
7.118160369269403
 42
0.1454787830754844
 10
184.5671690122602
 20
9.452852759694209
 42
0.2090289610022575
 10
183.4179929142678
 20
10.71591071200417
 42
0.2509780114725508
 10
181.3269206730922
 20
10.56621036557223
 42
0.0
 10
181.3269206730922
 20
10.77826047763267
 42
0.0
 10
180.1922008356549
 20
10.77826047763267
 42
0.0
 97
        1
330
2464
 92
       22
 72
     1
 73
     1
 93
        7
 10
181.3269206730922
 20
9.649303832430231
 42
-0.2989352106795097
 10
183.0383857367719
 20
9.813694992411338
 42
-0.1898212309736138
 10
183.6122246189639
 20
8.933127238281548
 42
-0.0659282931228529
 10
183.6127328290073
 20
7.566155516116743
 42
-0.1241286129051029
 10
183.2657642838722
 20
6.9662939946905
 42
-0.0600684322457551
 10
182.8753349192135
 20
6.666462805026003
 42
-0.2741033349168765
 10
181.3269206730922
 20
6.737411717605815
 42
0.0
 97
        1
330
2463
 92
        7
 72
     1
 73
     1
 93
       14
 10
184.0996336498053
 20
13.30265798968572
 42
-0.0829624126767283
 10
172.6060630259369
 20
15.15561449868119
 42
0.0
 10
172.4606106007267
 20
14.72448970004339
 42
0.0829624126767251
 10
184.1022290769075
 20
12.84766539220951
 42
0.0
 10
186.7646336498064
 20
12.84766539220951
 42
-0.414213562373081
 10
187.2846336498064
 20
12.32766539220951
 42
0.0
 10
187.2846336498064
 20
3.617657989685748
 42
-0.4142135623730816
 10
186.7646336498064
 20
3.097657989685743
 42
0.0
 10
172.5296336498063
 20
3.097657989685743
 42
0.0
 10
172.5296336498063
 20
2.642657989685744
 42
0.0
 10
186.7646336498063
 20
2.642657989685744
 42
0.4142135623730996
 10
187.7396336498064
 20
3.617657989685759
 42
0.0
 10
187.7396336498063
 20
12.32766539220952
 42
0.4130726898721487
 10
186.7684329742931
 20
13.30265798968574
 42
0.0
 97
        1
330
245F
 92
        7
 72
     1
 73
     1
 93
        2
 10
189.230709588015
 20
14.48202895398631
 42
1.0
 10
187.5667493853671
 20
14.48202895398631
 42
1.0
 97
        1
330
2465
 92
       22
 72
     1
 73
     1
 93
        2
 10
189.0917517292717
 20
14.48202895398631
 42
1.0
 10
187.7057072441104
 20
14.48202895398631
 42
1.0
 97
        1
330
2466
 92
        6
 72
     1
 73
     1
 93
       17
 10
188.0891795167577
 20
14.04344269414814
 42
0.0
 10
188.0891795167577
 20
14.87685082043882
 42
-0.430292598095628
 10
188.1602238038721
 20
14.95062377538656
 42
0.0
 10
188.4261557316127
 20
14.95062377538655
 42
-0.1568897140508004
 10
188.7006785950414
 20
14.8834518751411
 42
-0.315341775502797
 10
188.7752715668388
 20
14.73776382093931
 42
0.0
 10
188.7752715668388
 20
14.6714272046255
 42
-0.214053362091937
 10
188.7212103793381
 20
14.42411548719076
 42
-0.1964805591713776
 10
188.7752715668388
 20
14.11867514764511
 42
0.0
 10
188.7752715668388
 20
14.043442694148
 42
0.0
 10
188.5773064487483
 20
14.04344269414801
 42
0.1689517444768469
 10
188.6343570292176
 20
14.13848483333379
 42
0.0
 10
188.6343570292176
 20
14.20746020516914
 42
0.3344300509710908
 10
188.4816798184333
 20
14.34121969975355
 42
0.0
 10
188.3510013364867
 20
14.34121969975355
 42
0.33200365023858
 10
188.2485746924039
 20
14.2209106453635
 42
0.0
 10
188.2485746924039
 20
14.04344269414801
 42
0.0
 97
        1
330
2469
 92
        6
 72
     1
 73
     1
 93
        2
 10
188.5931590162751
 20
14.66258826751255
 42
0.0283389187032986
 10
188.5931590162751
 20
14.67490823679968
 42
0.0
 97
        1
330
2467
 75
     0
 76
     1
 47
0.2105755736759934
 98
        9
 10
175.6453618172754
 20
10.2800670495476
 10
178.4944714567078
 20
9.705195731500037
 10
180.7682801127427
 20
9.842069878418275
 10
180.7682801127427
 20
9.842069878418275
 10
187.4253344155173
 20
12.79855093480507
 10
188.0554259540249
 20
13.78404458359732
 10
188.0554259540249
 20
13.78404458359732
 10
188.0554259540249
 20
13.78404458359732
 10
188.0554259540249
 20
13.78404458359732
450
        0
451
        0
460
0.0
461
0.0
452
        0
462
0.0
453
        0
470

  0
LWPOLYLINE
  5
245F
102
{ACAD_REACTORS
330
245E
102
}
330
2451
100
AcDbEntity
 67
     1
  8
0
 62
     1
100
AcDbPolyline
 90
       15
 70
     0
 43
0.0
 10
186.7646336498063
 20
13.30266539220951
 42
-0.4142135623730951
 10
187.7396336498063
 20
12.32766539220951
 10
187.7396336498064
 20
3.617657989685744
 42
-0.4142135623730951
 10
186.7646336498063
 20
2.642657989685744
 10
172.5296336498063
 20
2.642657989685744
 10
172.5296336498063
 20
3.097657989685743
 10
186.7646336498063
 20
3.097657989685743
 42
0.4142135623730951
 10
187.2846336498064
 20
3.617657989685744
 10
187.2846336498064
 20
12.32766539220951
 42
0.4142135623730951
 10
186.7646336498063
 20
12.84766539220951
 10
184.1022290769089
 20
12.84766539220951
 42
-0.0829624126767354
 10
172.4606106007267
 20
14.72448970004339
 10
172.6060630259369
 20
15.15561449868119
 42
0.0829624126767356
 10
184.0996336498063
 20
13.30265798968572
 10
186.768432974293
 20
13.30265798968574
  0
LWPOLYLINE
  5
2460
102
{ACAD_REACTORS
330
245E
102
}
330
2451
100
AcDbEntity
 67
     1
  8
0
 62
     1
100
AcDbPolyline
 90
       13
 70
     0
 43
0.0
 10
174.2108190769815
 20
6.670566757922292
 10
176.8000291350547
 20
6.670566757922292
 10
176.8000291350547
 20
5.707342760602259
 10
172.644211845655
 20
5.707312574502982
 42
-0.5071802274160878
 10
172.4914556324586
 20
6.020268981102255
 10
175.1753283020242
 20
9.694603739174606
 42
0.5083225216873333
 10
175.1172347781356
 20
9.815300931198191
 10
172.5653492253769
 20
9.815300931198191
 10
172.5653492253769
 20
10.77490737173337
 10
176.753748292873
 20
10.77490737173337
 10
176.753748292873
 20
10.30088496212111
 10
174.1743482512912
 20
6.735568983573102
 42
0.5855768765223777
 10
174.218227789512
 20
6.670566757922292
  0
LWPOLYLINE
  5
2461
102
{ACAD_REACTORS
330
245E
102
}
330
2451
100
AcDbEntity
 67
     1
  8
0
 62
     1
100
AcDbPolyline
 90
        6
 70
     1
 43
0.0
 10
177.2426526430076
 20
9.838115706771706
 10
177.2426526430076
 20
10.76669905952824
 10
178.9666074401292
 20
10.76669905952824
 10
178.9666074401292
 20
5.707358497710934
 10
177.8903677725763
 20
5.707350680361074
 10
177.8903677725763
 20
9.838115706771713
  0
LWPOLYLINE
  5
2462
330
2451
100
AcDbEntity
 67
     1
  8
0
 62
     1
100
AcDbPolyline
 90
        2
 70
     1
 43
0.5199938194713205
 10
178.1684970925114
 20
12.09962512678654
 42
1.0
 10
178.6884909119828
 20
12.09962512678654
 42
1.0
  0
LWPOLYLINE
  5
2463
102
{ACAD_REACTORS
330
245E
102
}
330
2451
100
AcDbEntity
 67
     1
  8
0
 62
     1
100
AcDbPolyline
 90
        7
 70
     1
 43
0.0
 10
183.6122246189638
 20
8.933127238281983
 42
0.1898212309735227
 10
183.038385736772
 20
9.813694992411306
 42
0.2989352106795207
 10
181.3269206730922
 20
9.649303832430234
 10
181.3269206730922
 20
6.737411717605818
 42
0.2741033349168594
 10
182.8753349192135
 20
6.666462805025961
 42
0.0600684322456349
 10
183.2657642838714
 20
6.96629399468974
 42
0.1241286129052769
 10
183.6127328290073
 20
7.566155516116644
 42
0.0659282931228788
  0
LWPOLYLINE
  5
2464
102
{ACAD_REACTORS
330
245E
102
}
330
2451
100
AcDbEntity
 67
     1
  8
0
 62
     1
100
AcDbPolyline
 90
       12
 70
     1
 43
0.0
 10
181.3269206730922
 20
10.64075346765235
 10
181.3269206730922
 20
10.77826047763267
 10
180.1922008356549
 20
10.77826047763267
 10
180.1922008356549
 20
3.799755387185154
 10
181.3492173168779
 20
3.799755387185154
 10
181.3492173168779
 20
5.734822214632103
 42
-0.4980732597277929
 10
181.4639555954105
 20
5.80435064655672
 42
0.1631603344019285
 10
183.1864652238147
 20
5.70595067435121
 42
0.2143211476370474
 10
184.5317686669934
 20
7.118160369270324
 42
0.1454787830754339
 10
184.5671690122602
 20
9.452852759694359
 42
0.209028960994081
 10
183.4179929143287
 20
10.71591071197696
 42
0.2333951007146881
 10
181.4541309634565
 20
10.64075346765236
  0
CIRCLE
  5
2465
102
{ACAD_REACTORS
330
245E
102
}
330
2451
100
AcDbEntity
 67
     1
  8
0
 62
     1
100
AcDbCircle
 10
188.398729486691
 20
14.48202895398631
 30
0.0
 40
0.8319801013239141
  0
CIRCLE
  5
2466
102
{ACAD_REACTORS
330
245E
102
}
330
2451
100
AcDbEntity
 67
     1
  8
0
 62
     1
100
AcDbCircle
 10
188.398729486691
 20
14.48202895398631
 30
0.0
 40
0.6930222425806165
  0
LWPOLYLINE
  5
2467
102
{ACAD_REACTORS
330
245E
102
}
330
2451
100
AcDbEntity
 67
     1
  8
0
 62
     1
100
AcDbPolyline
 90
       10
 70
     1
 43
0.0
 10
188.5749871489375
 20
14.72920109052687
 42
0.2024912017590097
 10
188.4928765106515
 20
14.78863575978702
 10
188.3412479398487
 20
14.78863575978702
 42
0.3605152320615398
 10
188.2730582352929
 20
14.72412753393324
 10
188.2730582352929
 20
14.5952765909802
 42
0.3656960469701174
 10
188.3460633056111
 20
14.51927846821619
 10
188.4969397317304
 20
14.51927846821619
 42
0.143350963341212
 10
188.5775063805282
 20
14.54442567510559
 42
0.2365834905846161
 10
188.5931590162751
 20
14.57619629999332
 10
188.5931590162751
 20
14.67490823679983
 42
0.133951748517549
  0
HATCH
  5
2468
330
2451
100
AcDbEntity
 67
     1
  8
0
 62
     1
100
AcDbHatch
 10
0.0
 20
0.0
 30
0.0
210
0.0
220
0.0
230
1.0
  2
SOLID
 70
     1
 71
     0
 91
        2
 92
        7
 72
     1
 73
     1
 93
       16
 10
188.6343570292176
 20
14.20746020516914
 42
0.0
 10
188.6343570292176
 20
14.04344269414801
 42
0.0
 10
188.7752715668388
 20
14.043442694148
 42
0.0
 10
188.7752715668388
 20
14.29185258888377
 42
0.0878146924641936
 10
188.7212103793381
 20
14.42411548719076
 42
0.1080222927165532
 10
188.7752715668388
 20
14.54460919492257
 42
0.0
 10
188.7752715668388
 20
14.77693979931692
 42
0.192215680109946
 10
188.7229380317306
 20
14.86886648353821
 42
0.171699417140815
 10
188.4261557316127
 20
14.95062377538655
 42
0.0
 10
188.1590317123538
 20
14.95062377538656
 42
0.3983152836439984
 10
188.0891795167577
 20
14.88335522903354
 42
0.0
 10
188.0891795167577
 20
14.043442694148
 42
0.0
 10
188.2485746924039
 20
14.043442694148
 42
0.0
 10
188.2485746924039
 20
14.20396741150131
 42
-0.3680258038893664
 10
188.3510013364867
 20
14.34121969975355
 42
0.0
 10
188.4567423536045
 20
14.34121969975355
 42
-0.3760883100637826
 97
        0
 92
       22
 72
     1
 73
     1
 93
       10
 10
188.4915967925483
 20
14.51927846821619
 42
0.0
 10
188.3630709943212
 20
14.51927846821619
 42
-0.4644547038390189
 10
188.2730582352929
 20
14.60574623298982
 42
0.0
 10
188.2730582352929
 20
14.70635490265327
 42
-0.4700313181861818
 10
188.3508968496409
 20
14.78863575978702
 42
0.0
 10
188.4928765106515
 20
14.78863575978702
 42
-0.2024912017596684
 10
188.5749871489377
 20
14.72920109052658
 42
-0.1629090778538176
 10
188.5931590162751
 20
14.66258826751202
 42
0.0
 10
188.5931590162751
 20
14.57619629999126
 42
-0.2807969913979313
 10
188.5719823350275
 20
14.54091967679401
 42
-0.1413133624004751
 97
        0
 75
     0
 76
     1
 47
0.025620434889365
 98
        2
 10
188.5750173726398
 20
14.44298061465923
 10
188.5750173726398
 20
14.44298061465923
450
        0
451
        0
460
0.0
461
0.0
452
        0
462
0.0
453
        0
470

  0
LWPOLYLINE
  5
2469
102
{ACAD_REACTORS
330
245E
102
}
330
2451
100
AcDbEntity
 67
     1
  8
0
 62
     1
100
AcDbPolyline
 90
       17
 70
     0
 43
0.0
 10
188.0891795167577
 20
14.88335522903302
 10
188.0891795167577
 20
14.043442694148
 10
188.2485746924039
 20
14.04344269414801
 10
188.2485746924039
 20
14.22091064536369
 42
-0.3320036502381971
 10
188.3510013364867
 20
14.34121969975355
 10
188.4816798184333
 20
14.34121969975355
 42
-0.3344300509710546
 10
188.6343570292176
 20
14.20746020516917
 10
188.6343570292176
 20
14.04344269414801
 10
188.7752715668388
 20
14.043442694148
 10
188.7752715668388
 20
14.29185258888386
 42
0.0878146924641325
 10
188.7212103793381
 20
14.42411548719077
 42
0.1080222927165679
 10
188.7752715668388
 20
14.54460919492261
 10
188.7752715668388
 20
14.77693979931685
 42
0.2411188226969047
 10
188.7006785950415
 20
14.88345187514104
 42
0.1568897140508559
 10
188.4261557316127
 20
14.95062377538655
 10
188.1590317123538
 20
14.95062377538656
 42
0.4252932903388871
 10
188.0891795167577
 20
14.87685082043922
  0
TEXT
  5
246A
330
2451
100
AcDbEntity
 67
     1
  8
0
 62
     7
100
AcDbText
 10
109.8439966605646
 20
277.6427615215756
 30
0.0
 40
2.872918975993215
  1
01.02.04
  7
Stil1
100
AcDbText
  0
TEXT
  5
246B
330
2451
100
AcDbEntity
 67
     1
  8
0
 62
     7
100
AcDbText
 10
109.8439966605646
 20
273.0276699878348
 30
0.0
 40
2.872918975993215
  1
M 1:5
  7
Stil1
100
AcDbText
  0
TEXT
  5
246C
330
2451
100
AcDbEntity
 67
     1
  8
0
 62
     7
100
AcDbText
 10
179.1759786868851
 20
277.6427615215756
 30
0.0
 40
2.872918975993215
  1
střecha
  7
Stil1
100
AcDbText
  0
TEXT
  5
246D
330
2451
100
AcDbEntity
 67
     1
  8
0
 62
     7
100
AcDbText
 10
185.5805356958195
 20
273.0276699878348
 30
0.0
 40
2.872918975993215
  1
163
  7
Stil1
100
AcDbText
  0
VIEWPORT
  5
246E
330
2451
100
AcDbEntity
 67
     1
  8
Mansfen
100
AcDbViewport
 10
101.7050114990868
 20
145.0520291378911
 30
0.0
 40
188.6531088825485
 41
250.0286715940809
 68
     2
 69
     2
 12
589.5584251133186
 22
723.7944344610382
 13
0.0
 23
0.0
 14
10.0
 24
10.0
 15
10.0
 25
10.0
 16
0.0
 26
0.0
 36
1.0
 17
0.0
 27
0.0
 37
0.0
 42
50.0
 43
0.0
 44
0.0
 45
1250.143357757
 50
0.0
 51
0.0
 72
 20000
 90
    32768
  1

281
     0
 71
     1
 74
     0
110
0.0
120
0.0
130
0.0
111
1.0
121
0.0
131
0.0
112
0.0
122
1.0
132
0.0
 79
     0
146
0.0
170
     0
  0
MTEXT
  5
4F05
102
{ACAD_XDICTIONARY
360
4FAC
102
}
330
2451
100
AcDbEntity
 67
     1
  8
TXT-D
100
AcDbMText
 10
7.784635218342156
 20
16.04852645779709
 30
0.0
 40
2.8
 41
106.1716
 71
     1
 72
     5
  1
{\C7;* Poplastovan\U+00E9 klipsy nejsou vyr\U+00E1b\U+011Bny ve v\U+0161ech rozm\U+011Brech}
  7
ROMANS
 73
     1
 44
1.0
  0
ENDSEC
  0
SECTION
  2
OBJECTS
  0
DICTIONARY
  5
C
330
0
100
AcDbDictionary
281
     1
  3
ACAD_CIP_PREVIOUS_PRODUCT_INFO
350
4E81
  3
ACAD_COLOR
350
4E62
  3
ACAD_DETAILVIEWSTYLE
350
4E7B
  3
ACAD_GROUP
350
D
  3
ACAD_IMAGE_DICT
350
6C4
  3
ACAD_IMAGE_VARS
350
6C5
  3
ACAD_LAYOUT
350
5E9
  3
ACAD_MATERIAL
350
4E30
  3
ACAD_MLEADERSTYLE
350
4E77
  3
ACAD_MLINESTYLE
350
1B
  3
ACAD_PLOTSETTINGS
350
5EA
  3
ACAD_PLOTSTYLENAME
350
5E7
  3
ACAD_SCALELIST
350
4E65
  3
ACAD_SECTIONVIEWSTYLE
350
4E79
  3
ACAD_TABLESTYLE
350
4E63
  3
ACAD_VISUALSTYLE
350
4E49
  3
ACDB_RECOMPOSE_DATA
350
4F6A
  3
AcDbVariableDictionary
350
7F0
  3
AcDsDecomposeData
350
4F70
  0
DICTIONARY
  5
4EA3
330
2
100
AcDbDictionary
280
     1
281
     1
  3
ACAD_LAYERSTATES
360
4EA4
  0
DICTIONARY
  5
4E82
330
E
100
AcDbDictionary
280
     1
281
     1
  3
ADSK_XREC_LAYER_RECONCILED
360
4E83
  0
DICTIONARY
  5
4E84
330
B7
100
AcDbDictionary
280
     1
281
     1
  3
ADSK_XREC_LAYER_RECONCILED
360
4E85
  0
DICTIONARY
  5
4E86
330
8F4
100
AcDbDictionary
280
     1
281
     1
  3
ADSK_XREC_LAYER_RECONCILED
360
4E87
  0
DICTIONARY
  5
4E88
330
120A
100
AcDbDictionary
280
     1
281
     1
  3
ADSK_XREC_LAYER_RECONCILED
360
4E89
  0
DICTIONARY
  5
4E8A
330
120B
100
AcDbDictionary
280
     1
281
     1
  3
ADSK_XREC_LAYER_RECONCILED
360
4E8B
  0
DICTIONARY
  5
4E8C
330
120C
100
AcDbDictionary
280
     1
281
     1
  3
ADSK_XREC_LAYER_RECONCILED
360
4E8D
  0
DICTIONARY
  5
4E8E
330
120D
100
AcDbDictionary
280
     1
281
     1
  3
ADSK_XREC_LAYER_RECONCILED
360
4E8F
  0
DICTIONARY
  5
4E90
330
120E
100
AcDbDictionary
280
     1
281
     1
  3
ADSK_XREC_LAYER_RECONCILED
360
4E91
  0
DICTIONARY
  5
4E92
330
19FD
100
AcDbDictionary
280
     1
281
     1
  3
ADSK_XREC_LAYER_RECONCILED
360
4E93
  0
DICTIONARY
  5
4E94
330
30EC
100
AcDbDictionary
280
     1
281
     1
  3
ADSK_XREC_LAYER_RECONCILED
360
4E95
  0
DICTIONARY
  5
81C
330
18
100
AcDbDictionary
280
     1
281
     1
  3
ACAD_LAYOUTSELFREF
360
211D
  0
DICTIONARY
  5
4F73
330
3284
100
AcDbDictionary
280
     1
281
     1
  3
ACAD_MTEXT_2008_RT
360
4F74
  0
DICTIONARY
  5
4FAC
330
4F05
100
AcDbDictionary
280
     1
281
     1
  3
ACAD_MTEXT_2008_RT
360
4FAD
  0
XRECORD
  5
4E81
102
{ACAD_REACTORS
330
C
102
}
330
C
100
AcDbXrecord
280
     1
300
ACD
300
2013
300
ACD_F_S
  0
DICTIONARY
  5
4E62
102
{ACAD_REACTORS
330
C
102
}
330
C
100
AcDbDictionary
281
     1
  0
DICTIONARY
  5
4E7B
102
{ACAD_REACTORS
330
C
102
}
330
C
100
AcDbDictionary
281
     1
  3
Metric50
350
4E7C
  0
DICTIONARY
  5
D
102
{ACAD_REACTORS
330
C
102
}
330
C
100
AcDbDictionary
281
     1
  0
DICTIONARY
  5
6C4
102
{ACAD_REACTORS
330
C
102
}
330
C
100
AcDbDictionary
281
     1
  3
Kalzip
350
6C6
  0
RASTERVARIABLES
  5
6C5
102
{ACAD_REACTORS
330
C
102
}
330
C
100
AcDbRasterVariables
 90
        0
 70
     1
 71
     1
 72
     0
  0
DICTIONARY
  5
5E9
102
{ACAD_REACTORS
330
C
102
}
330
C
100
AcDbDictionary
281
     1
  3
A4
350
2450
  3
Model
350
5EB
  0
DICTIONARY
  5
4E30
102
{ACAD_REACTORS
330
C
102
}
330
C
100
AcDbDictionary
281
     1
  3
ByBlock
350
4E39
  3
ByLayer
350
4E31
  3
Global
350
4E41
  0
DICTIONARY
  5
4E77
102
{ACAD_REACTORS
330
C
102
}
330
C
100
AcDbDictionary
281
     1
  3
Standard
350
4E78
  0
DICTIONARY
  5
1B
102
{ACAD_REACTORS
330
C
102
}
330
C
100
AcDbDictionary
281
     1
  3
STANDARD
350
1C
  0
DICTIONARY
  5
5EA
102
{ACAD_REACTORS
330
C
102
}
330
C
100
AcDbDictionary
281
     1
  3
kzform
350
3D3C
  0
ACDBDICTIONARYWDFLT
  5
5E7
102
{ACAD_REACTORS
330
C
102
}
330
C
100
AcDbDictionary
281
     1
  3
Normal
350
5E8
100
AcDbDictionaryWithDefault
340
5E8
  0
DICTIONARY
  5
4E65
102
{ACAD_REACTORS
330
C
102
}
330
C
100
AcDbDictionary
281
     1
  3
A0
350
4E66
  3
A1
350
4E67
  3
A2
350
4E68
  3
A3
350
4E69
  3
A4
350
4E6A
  3
A5
350
4E6B
  3
A6
350
4E6C
  3
A7
350
4E6D
  3
A8
350
4E6E
  3
A9
350
4E6F
  3
B0
350
4E70
  3
B1
350
4E71
  3
B2
350
4E72
  3
B3
350
4E73
  3
B4
350
4E74
  3
B5
350
4E75
  3
B6
350
4E76
  0
DICTIONARY
  5
4E79
102
{ACAD_REACTORS
330
C
102
}
330
C
100
AcDbDictionary
281
     1
  3
Metric50
350
4E7A
  0
DICTIONARY
  5
4E63
102
{ACAD_REACTORS
330
C
102
}
330
C
100
AcDbDictionary
281
     1
  3
Standard
350
4E64
  0
DICTIONARY
  5
4E49
102
{ACAD_REACTORS
330
C
102
}
330
C
100
AcDbDictionary
281
     1
  3
2dWireframe
350
4E4F
  3
Basic
350
4E4E
  3
Brighten
350
4E55
  3
ColorChange
350
4E59
  3
Conceptual
350
4E52
  3
Dim
350
4E54
  3
EdgeColorOff
350
4E61
  3
Facepattern
350
4E58
  3
Flat
350
4E4A
  3
FlatWithEdges
350
4E4B
  3
Gouraud
350
4E4C
  3
GouraudWithEdges
350
4E4D
  3
Hidden
350
4E51
  3
JitterOff
350
4E5F
  3
Linepattern
350
4E57
  3
OverhangOff
350
4E60
  3
Realistic
350
4E53
  3
Shaded
350
4E5E
  3
Shaded with edges
350
4E5D
  3
Shades of Gray
350
4E5A
  3
Sketchy
350
4E5B
  3
Thicken
350
4E56
  3
Wireframe
350
4E50
  3
X-Ray
350
4E5C
  0
XRECORD
  5
4F6A
102
{ACAD_REACTORS
330
C
102
}
330
C
100
AcDbXrecord
280
     1
 90
        1
330
4E64
  0
DICTIONARY
  5
7F0
102
{ACAD_REACTORS
330
C
102
}
330
C
100
AcDbDictionary
281
     1
  3
CANNOSCALE
350
4EF2
  3
CMLEADERSTYLE
350
4EEE
  3
CTABLESTYLE
350
4EED
  3
CVIEWDETAILSTYLE
350
4EEF
  3
CVIEWSECTIONSTYLE
350
4EF0
  3
DIMASSOC
350
2479
  3
LAYEREVAL
350
4EF4
  3
LAYERNOTIFY
350
4EF5
  3
LIGHTINGUNITS
350
4EF3
  3
MSLTSCALE
350
4EF1
  3
SORTENTS
350
7F1
  3
XCLIPFRAME
350
4F67
  0
DICTIONARY
  5
4F70
102
{ACAD_REACTORS
330
C
102
}
330
C
100
AcDbDictionary
281
     1
  3
AcDsRecords
350
4F72
  3
AcDsSchemas
350
4F71
1001
ACAD
1070
     2
  0
DICTIONARY
  5
4EA4
102
{ACAD_REACTORS
330
4EA3
102
}
330
4EA3
100
AcDbDictionary
281
     1
  0
XRECORD
  5
4E83
102
{ACAD_REACTORS
330
4E82
102
}
330
4E82
100
AcDbXrecord
280
     1
290
     1
  0
XRECORD
  5
4E85
102
{ACAD_REACTORS
330
4E84
102
}
330
4E84
100
AcDbXrecord
280
     1
290
     1
  0
XRECORD
  5
4E87
102
{ACAD_REACTORS
330
4E86
102
}
330
4E86
100
AcDbXrecord
280
     1
290
     1
  0
XRECORD
  5
4E89
102
{ACAD_REACTORS
330
4E88
102
}
330
4E88
100
AcDbXrecord
280
     1
290
     1
  0
XRECORD
  5
4E8B
102
{ACAD_REACTORS
330
4E8A
102
}
330
4E8A
100
AcDbXrecord
280
     1
290
     1
  0
XRECORD
  5
4E8D
102
{ACAD_REACTORS
330
4E8C
102
}
330
4E8C
100
AcDbXrecord
280
     1
290
     1
  0
XRECORD
  5
4E8F
102
{ACAD_REACTORS
330
4E8E
102
}
330
4E8E
100
AcDbXrecord
280
     1
290
     1
  0
XRECORD
  5
4E91
102
{ACAD_REACTORS
330
4E90
102
}
330
4E90
100
AcDbXrecord
280
     1
290
     1
  0
XRECORD
  5
4E93
102
{ACAD_REACTORS
330
4E92
102
}
330
4E92
100
AcDbXrecord
280
     1
290
     1
  0
XRECORD
  5
4E95
102
{ACAD_REACTORS
330
4E94
102
}
330
4E94
100
AcDbXrecord
280
     1
290
     1
  0
XRECORD
  5
211D
102
{ACAD_REACTORS
330
81C
102
}
330
81C
100
AcDbXrecord
280
     1
340
18
  0
XRECORD
  5
4F74
102
{ACAD_REACTORS
330
4F73
102
}
330
4F73
100
AcDbXrecord
280
     1
 40
22325.0
  1
s termopodložkou
  0
XRECORD
  5
4FAD
102
{ACAD_REACTORS
330
4FAC
102
}
330
4FAC
100
AcDbXrecord
280
     1
 40
350889.0
  1
{\C7;* Poplastované klipsy nejsou vyráběny ve všech rozměrech}
  0
ACDBDETAILVIEWSTYLE
  5
4E7C
102
{ACAD_REACTORS
330
4E7B
102
}
330
4E7B
100
AcDbModelDocViewStyle
 70
     0
  3
Metric50
290
     0
100
AcDbDetailViewStyle
 70
     0
 71
     0
 90
        3
 71
     1
340
F
 62
   256
 40
5.0
340
0
 62
   256
 40
5.0
300

 40
0.0
280
     1
 71
     2
340
14
 90
       25
 62
   256
 71
     3
340
F
 62
   256
 40
5.0
 90
        0
 40
15.0
 90
        1
300
%<\AcVar ViewDetailId>% (%<\AcVar ViewScale \f "%sn">%)
 71
     4
340
14
 90
       25
 62
   256
340
14
 90
       25
 62
   256
280
     0
  0
IMAGEDEF
  5
6C6
102
{ACAD_REACTORS
330
6C4
102
}
330
6C4
100
AcDbRasterImageDef
 90
        0
  1
C:\Kalzip.pcx
 10
944.0
 20
1927.0
 11
0.0010593220338983
 21
0.0010593220338983
280
     1
281
     0
  0
LAYOUT
  5
2450
102
{ACAD_REACTORS
330
5E9
102
}
330
5E9
100
AcDbPlotSettings
  1

  2
Brother HL-760
  4
A4
  6

 40
6.043083
 41
6.762742
 42
7.736419999999999
 43
5.027069
 44
209.973328
 45
296.968323
 46
0.0
 47
0.0
 48
0.0
 49
0.0
140
210.0
141
297.0
142
1.0
143
1.0
 70
   688
 72
     1
 73
     0
 74
     5
  7
CORUS_Mono.ctb
 75
    16
147
1.0
 76
     0
 77
     2
 78
   300
148
0.0
149
0.0
100
AcDbLayout
  1
A4
 70
     0
 71
     1
 10
-6.043083
 20
-6.762742
 11
203.930245
 21
290.205581
 12
0.0
 22
0.0
 32
0.0
 14
7.378457057812568
 24
2.642657989685733
 34
0.0
 15
196.0315659403611
 25
281.2760437736162
 35
0.0
146
0.0
 13
0.0
 23
0.0
 33
0.0
 16
1.0
 26
0.0
 36
0.0
 17
0.0
 27
1.0
 37
0.0
 76
     0
330
2451
331
2452
  0
LAYOUT
  5
5EB
102
{ACAD_REACTORS
330
5E9
102
}
330
5E9
100
AcDbPlotSettings
  1

  2
\\BSSRV01\Océ 5120 A0
  4
A4
  6

 40
3.174999952316284
 41
3.174999952316284
 42
3.175003051757812
 43
3.17498779296875
 44
209.9733276367187
 45
296.9683227539062
 46
0.0
 47
0.0
 48
0.0
 49
0.0
140
0.0
141
0.0
142
1.0
143
1.0
 70
 11952
 72
     1
 73
     1
 74
     0
  7

 75
     0
147
1.0
 76
     0
 77
     2
 78
   300
148
973.0712272420497
149
544.3184272033454
100
AcDbLayout
  1
Model
 70
     1
 71
     0
 10
0.0
 20
0.0
 11
12.0
 21
9.0
 12
0.0
 22
0.0
 32
0.0
 14
0.0
 24
0.0
 34
0.0
 15
0.0
 25
0.0
 35
0.0
146
0.0
 13
0.0
 23
0.0
 33
0.0
 16
1.0
 26
0.0
 36
0.0
 17
0.0
 27
1.0
 37
0.0
 76
     0
330
18
331
4E2E
  0
MATERIAL
  5
4E39
102
{ACAD_XDICTIONARY
360
4E3A
102
}
102
{ACAD_REACTORS
330
4E30
102
}
330
4E30
100
AcDbMaterial
  1
ByBlock
 72
     0
 43
0.0208333333333333
 43
0.0
 43
0.0
 43
0.0
 43
0.0
 43
0.0208333333333333
 43
0.0
 43
0.0
 43
0.0
 43
0.0
 43
1.0
 43
0.0
 43
0.0
 43
0.0
 43
0.0
 43
1.0
 77
     0
 47
0.0208333333333333
 47
0.0
 47
0.0
 47
0.0
 47
0.0
 47
0.0208333333333333
 47
0.0
 47
0.0
 47
0.0
 47
0.0
 47
1.0
 47
0.0
 47
0.0
 47
0.0
 47
0.0
 47
1.0
171
     0
 49
0.0208333333333333
 49
0.0
 49
0.0
 49
0.0
 49
0.0
 49
0.0208333333333333
 49
0.0
 49
0.0
 49
0.0
 49
0.0
 49
1.0
 49
0.0
 49
0.0
 49
0.0
 49
0.0
 49
1.0
175
     0
142
0.0208333333333333
142
0.0
142
0.0
142
0.0
142
0.0
142
0.0208333333333333
142
0.0
142
0.0
142
0.0
142
0.0
142
1.0
142
0.0
142
0.0
142
0.0
142
0.0
142
1.0
179
     0
144
0.0208333333333333
144
0.0
144
0.0
144
0.0
144
0.0
144
0.0208333333333333
144
0.0
144
0.0
144
0.0
144
0.0
144
1.0
144
0.0
144
0.0
144
0.0
144
0.0
144
1.0
147
0.0208333333333333
147
0.0
147
0.0
147
0.0
147
0.0
147
0.0208333333333333
147
0.0
147
0.0
147
0.0
147
0.0
147
1.0
147
0.0
147
0.0
147
0.0
147
0.0
147
1.0
  0
MATERIAL
  5
4E31
102
{ACAD_XDICTIONARY
360
4E32
102
}
102
{ACAD_REACTORS
330
4E30
102
}
330
4E30
100
AcDbMaterial
  1
ByLayer
 72
     0
 43
0.0208333333333333
 43
0.0
 43
0.0
 43
0.0
 43
0.0
 43
0.0208333333333333
 43
0.0
 43
0.0
 43
0.0
 43
0.0
 43
1.0
 43
0.0
 43
0.0
 43
0.0
 43
0.0
 43
1.0
 77
     0
 47
0.0208333333333333
 47
0.0
 47
0.0
 47
0.0
 47
0.0
 47
0.0208333333333333
 47
0.0
 47
0.0
 47
0.0
 47
0.0
 47
1.0
 47
0.0
 47
0.0
 47
0.0
 47
0.0
 47
1.0
171
     0
 49
0.0208333333333333
 49
0.0
 49
0.0
 49
0.0
 49
0.0
 49
0.0208333333333333
 49
0.0
 49
0.0
 49
0.0
 49
0.0
 49
1.0
 49
0.0
 49
0.0
 49
0.0
 49
0.0
 49
1.0
175
     0
142
0.0208333333333333
142
0.0
142
0.0
142
0.0
142
0.0
142
0.0208333333333333
142
0.0
142
0.0
142
0.0
142
0.0
142
1.0
142
0.0
142
0.0
142
0.0
142
0.0
142
1.0
179
     0
144
0.0208333333333333
144
0.0
144
0.0
144
0.0
144
0.0
144
0.0208333333333333
144
0.0
144
0.0
144
0.0
144
0.0
144
1.0
144
0.0
144
0.0
144
0.0
144
0.0
144
1.0
147
0.0208333333333333
147
0.0
147
0.0
147
0.0
147
0.0
147
0.0208333333333333
147
0.0
147
0.0
147
0.0
147
0.0
147
1.0
147
0.0
147
0.0
147
0.0
147
0.0
147
1.0
  0
MATERIAL
  5
4E41
102
{ACAD_XDICTIONARY
360
4E42
102
}
102
{ACAD_REACTORS
330
4E30
102
}
330
4E30
100
AcDbMaterial
  1
Global
 72
     0
 43
0.0208333333333333
 43
0.0
 43
0.0
 43
0.0
 43
0.0
 43
0.0208333333333333
 43
0.0
 43
0.0
 43
0.0
 43
0.0
 43
1.0
 43
0.0
 43
0.0
 43
0.0
 43
0.0
 43
1.0
 77
     0
 47
0.0208333333333333
 47
0.0
 47
0.0
 47
0.0
 47
0.0
 47
0.0208333333333333
 47
0.0
 47
0.0
 47
0.0
 47
0.0
 47
1.0
 47
0.0
 47
0.0
 47
0.0
 47
0.0
 47
1.0
171
     0
 49
0.0208333333333333
 49
0.0
 49
0.0
 49
0.0
 49
0.0
 49
0.0208333333333333
 49
0.0
 49
0.0
 49
0.0
 49
0.0
 49
1.0
 49
0.0
 49
0.0
 49
0.0
 49
0.0
 49
1.0
175
     0
142
0.0208333333333333
142
0.0
142
0.0
142
0.0
142
0.0
142
0.0208333333333333
142
0.0
142
0.0
142
0.0
142
0.0
142
1.0
142
0.0
142
0.0
142
0.0
142
0.0
142
1.0
179
     0
144
0.0208333333333333
144
0.0
144
0.0
144
0.0
144
0.0
144
0.0208333333333333
144
0.0
144
0.0
144
0.0
144
0.0
144
1.0
144
0.0
144
0.0
144
0.0
144
0.0
144
1.0
147
0.0208333333333333
147
0.0
147
0.0
147
0.0
147
0.0
147
0.0208333333333333
147
0.0
147
0.0
147
0.0
147
0.0
147
1.0
147
0.0
147
0.0
147
0.0
147
0.0
147
1.0
  0
MLEADERSTYLE
  5
4E78
102
{ACAD_XDICTIONARY
360
4FAA
102
}
102
{ACAD_REACTORS
330
4E77
102
}
330
4E77
100
AcDbMLeaderStyle
170
     2
171
     1
172
     0
 90
        2
 40
0.0
 41
0.0
173
     1
 91
-1056964608
340
12
 92
       -2
290
     1
 42
2.0
291
     1
 43
0.36
  3
Standard
 44
4.0
300

342
F
174
     1
178
     6
175
     1
176
     0
 93
-1056964608
 45
4.0
292
     0
297
     0
 46
4.0
 94
-1056964608
 47
1.0
 49
1.0
140
1.0
293
     1
141
0.0
294
     1
177
     0
142
1.0
295
     0
296
     0
143
0.125
1001
ACAD_MLEADERVER
1070
     2
  0
MLINESTYLE
  5
1C
102
{ACAD_REACTORS
330
1B
102
}
330
1B
100
AcDbMlineStyle
  2
STANDARD
 70
     0
  3

 62
   256
 51
90.0
 52
90.0
 71
     2
 49
0.5
 62
   256
  6
BYLAYER
 49
-0.5
 62
   256
  6
BYLAYER
  0
PLOTSETTINGS
  5
3D3C
102
{ACAD_REACTORS
330
5EA
102
}
330
5EA
100
AcDbPlotSettings
  1
kzform
  2
Brother HL-1250 series
  4
A4
  6

 40
6.720416545867919
 41
5.027085304260253
 42
6.889755249023437
 43
5.027069091796875
 44
209.9733276367187
 45
296.9259948730469
 46
0.0
 47
0.0
 48
0.0
 49
22.0
140
199.0
141
309.0
142
1.0
143
1.013428405888407
 70
  1712
 72
     1
 73
     0
 74
     4
  7
CORUS_Mono.ctb
 75
     0
147
0.9867495268433536
 76
     0
 77
     2
 78
   300
148
0.0
149
-22.0
  0
ACDBPLACEHOLDER
  5
5E8
102
{ACAD_REACTORS
330
5E7
102
}
330
5E7
  0
SCALE
  5
4E66
102
{ACAD_REACTORS
330
4E65
102
}
330
4E65
100
AcDbScale
 70
     0
300
1:1
140
1.0
141
1.0
290
     1
  0
SCALE
  5
4E67
102
{ACAD_REACTORS
330
4E65
102
}
330
4E65
100
AcDbScale
 70
     0
300
1:2
140
1.0
141
2.0
290
     0
  0
SCALE
  5
4E68
102
{ACAD_REACTORS
330
4E65
102
}
330
4E65
100
AcDbScale
 70
     0
300
1:4
140
1.0
141
4.0
290
     0
  0
SCALE
  5
4E69
102
{ACAD_REACTORS
330
4E65
102
}
330
4E65
100
AcDbScale
 70
     0
300
1:5
140
1.0
141
5.0
290
     0
  0
SCALE
  5
4E6A
102
{ACAD_REACTORS
330
4E65
102
}
330
4E65
100
AcDbScale
 70
     0
300
1:8
140
1.0
141
8.0
290
     0
  0
SCALE
  5
4E6B
102
{ACAD_REACTORS
330
4E65
102
}
330
4E65
100
AcDbScale
 70
     0
300
1:10
140
1.0
141
10.0
290
     0
  0
SCALE
  5
4E6C
102
{ACAD_REACTORS
330
4E65
102
}
330
4E65
100
AcDbScale
 70
     0
300
1:16
140
1.0
141
16.0
290
     0
  0
SCALE
  5
4E6D
102
{ACAD_REACTORS
330
4E65
102
}
330
4E65
100
AcDbScale
 70
     0
300
1:20
140
1.0
141
20.0
290
     0
  0
SCALE
  5
4E6E
102
{ACAD_REACTORS
330
4E65
102
}
330
4E65
100
AcDbScale
 70
     0
300
1:30
140
1.0
141
30.0
290
     0
  0
SCALE
  5
4E6F
102
{ACAD_REACTORS
330
4E65
102
}
330
4E65
100
AcDbScale
 70
     0
300
1:40
140
1.0
141
40.0
290
     0
  0
SCALE
  5
4E70
102
{ACAD_REACTORS
330
4E65
102
}
330
4E65
100
AcDbScale
 70
     0
300
1:50
140
1.0
141
50.0
290
     0
  0
SCALE
  5
4E71
102
{ACAD_REACTORS
330
4E65
102
}
330
4E65
100
AcDbScale
 70
     0
300
1:100
140
1.0
141
100.0
290
     0
  0
SCALE
  5
4E72
102
{ACAD_REACTORS
330
4E65
102
}
330
4E65
100
AcDbScale
 70
     0
300
2:1
140
2.0
141
1.0
290
     0
  0
SCALE
  5
4E73
102
{ACAD_REACTORS
330
4E65
102
}
330
4E65
100
AcDbScale
 70
     0
300
4:1
140
4.0
141
1.0
290
     0
  0
SCALE
  5
4E74
102
{ACAD_REACTORS
330
4E65
102
}
330
4E65
100
AcDbScale
 70
     0
300
8:1
140
8.0
141
1.0
290
     0
  0
SCALE
  5
4E75
102
{ACAD_REACTORS
330
4E65
102
}
330
4E65
100
AcDbScale
 70
     0
300
10:1
140
10.0
141
1.0
290
     0
  0
SCALE
  5
4E76
102
{ACAD_REACTORS
330
4E65
102
}
330
4E65
100
AcDbScale
 70
     0
300
100:1
140
100.0
141
1.0
290
     0
  0
ACDBSECTIONVIEWSTYLE
  5
4E7A
102
{ACAD_REACTORS
330
4E79
102
}
330
4E79
100
AcDbModelDocViewStyle
 70
     0
  3
Metric50
290
     0
100
AcDbSectionViewStyle
 70
     0
 71
     0
 90
      102
 71
     1
340
F
 62
   256
 40
5.0
340
0
340
0
 62
   256
 40
5.0
300
I, O, Q, S, X, Z
 40
10.0
 90
        0
 40
2.5
 90
        0
 71
     2
340
14
 90
       25
 62
   256
340
14
 90
       50
 62
   256
 40
5.0
 40
2.5
 40
5.0
 71
     3
340
F
 62
   256
 40
5.0
 90
        0
 40
15.0
 90
        1
300
%<\AcVar ViewSectionStartId>%-%<\AcVar ViewSectionEndId>% (%<\AcVar ViewScale \f "%sn">%)
 71
     4
 62
   256
 62
   257
300
ANSI31
 40
1.0
 90
        0
290
     0
290
     0
 90
        6
 40
0.0
 40
1.570796326794896
 40
0.2617993877991494
 40
1.308996938995747
 40
-0.2617993877991494
 40
1.832595714594046
  0
TABLESTYLE
  5
4E64
102
{ACAD_XDICTIONARY
360
4F68
102
}
102
{ACAD_REACTORS
330
4E63
102
}
330
4E63
100
AcDbTableStyle
  3
Standard
 70
     0
 71
     0
 40
1.5
 41
1.5
280
     0
281
     0
  7
STANDARD
140
4.5
170
     2
 62
     0
 63
     7
283
     0
274
    -2
284
     1
 64
     0
275
    -2
285
     1
 65
     0
276
    -2
286
     1
 66
     0
277
    -2
287
     1
 67
     0
278
    -2
288
     1
 68
     0
279
    -2
289
     1
 69
     0
  7
STANDARD
140
6.0
170
     5
 62
     0
 63
     7
283
     0
274
    -2
284
     1
 64
     0
275
    -2
285
     1
 65
     0
276
    -2
286
     1
 66
     0
277
    -2
287
     1
 67
     0
278
    -2
288
     1
 68
     0
279
    -2
289
     1
 69
     0
  7
STANDARD
140
4.5
170
     5
 62
     0
 63
     7
283
     0
274
    -2
284
     1
 64
     0
275
    -2
285
     1
 65
     0
276
    -2
286
     1
 66
     0
277
    -2
287
     1
 67
     0
278
    -2
288
     1
 68
     0
279
    -2
289
     1
 69
     0
  0
VISUALSTYLE
  5
4E4F
102
{ACAD_XDICTIONARY
360
4F82
102
}
102
{ACAD_REACTORS
330
4E49
102
}
330
4E49
100
AcDbVisualStyle
  2
2dWireframe
 70
     4
 71
     0
 72
     2
 73
     0
 90
        0
 40
-0.6
 41
-30.0
 62
     5
 63
     7
421
 16777215
 74
     1
 91
        4
 64
     7
 65
   257
 75
     1
175
     1
 42
1.0
 92
        0
 66
   257
 43
1.0
 76
     1
 77
     6
 78
     2
 67
     7
 79
     5
170
     0
171
     0
290
     0
174
     0
 93
        1
 44
0.0
173
     0
291
     0
 45
0.0
1001
ACAD
1000
AcDbSavedByObjectVersion
1070
     0
  0
VISUALSTYLE
  5
4E4E
102
{ACAD_XDICTIONARY
360
4F80
102
}
102
{ACAD_REACTORS
330
4E49
102
}
330
4E49
100
AcDbVisualStyle
  2
Basic
 70
     7
 71
     1
 72
     0
 73
     1
 90
        0
 40
-0.6
 41
-30.0
 62
     5
 63
     7
421
 16777215
 74
     0
 91
        4
 64
     7
 65
   257
 75
     1
175
     1
 42
1.0
 92
        8
 66
     7
 43
1.0
 76
     1
 77
     6
 78
     2
 67
     7
 79
     5
170
     0
171
     0
290
     0
174
     0
 93
        1
 44
0.0
173
     0
291
     1
 45
0.0
1001
ACAD
1000
AcDbSavedByObjectVersion
1070
     0
  0
VISUALSTYLE
  5
4E55
102
{ACAD_XDICTIONARY
360
4F8E
102
}
102
{ACAD_REACTORS
330
4E49
102
}
330
4E49
100
AcDbVisualStyle
  2
Brighten
 70
    12
 71
     2
 72
     2
 73
     0
 90
        0
 40
-0.6
 41
-30.0
 62
     5
 63
     7
421
 16777215
 74
     1
 91
        4
 64
     7
 65
   257
 75
     1
175
     1
 42
1.0
 92
        8
 66
     7
 43
1.0
 76
     1
 77
     6
 78
     2
 67
     7
 79
     5
170
     0
171
     0
290
     0
174
     0
 93
        1
 44
50.0
173
     0
291
     1
 45
0.0
1001
ACAD
1000
AcDbSavedByObjectVersion
1070
     0
  0
VISUALSTYLE
  5
4E59
102
{ACAD_XDICTIONARY
360
4F96
102
}
102
{ACAD_REACTORS
330
4E49
102
}
330
4E49
100
AcDbVisualStyle
  2
ColorChange
 70
    16
 71
     2
 72
     2
 73
     3
 90
        0
 40
-0.6
 41
-30.0
 62
     5
 63
     8
421
  8421504
 74
     1
 91
        4
 64
     7
 65
   257
 75
     1
175
     1
 42
1.0
 92
        8
 66
     8
424
  8421504
 43
1.0
 76
     1
 77
     6
 78
     2
 67
     7
 79
     5
170
     0
171
     0
290
     0
174
     0
 93
        1
 44
0.0
173
     0
291
     1
 45
0.0
1001
ACAD
1000
AcDbSavedByObjectVersion
1070
     0
  0
VISUALSTYLE
  5
4E52
102
{ACAD_XDICTIONARY
360
4F88
102
}
102
{ACAD_REACTORS
330
4E49
102
}
330
4E49
100
AcDbVisualStyle
  2
Conceptual
 70
     9
 71
     3
 72
     2
 73
     0
 90
        0
 40
-0.6
 41
-30.0
 62
     5
 63
     7
421
 16777215
 74
     2
 91
        2
 64
     7
 65
   257
 75
     1
175
     1
 42
179.0
 92
        8
 66
     7
 43
1.0
 76
     1
 77
     6
 78
     2
 67
     7
 79
     3
170
     0
171
     0
290
     0
174
     0
 93
        1
 44
0.0
173
     0
291
     0
 45
0.0
1001
ACAD
1000
AcDbSavedByObjectVersion
1070
     0
  0
VISUALSTYLE
  5
4E54
102
{ACAD_XDICTIONARY
360
4F8C
102
}
102
{ACAD_REACTORS
330
4E49
102
}
330
4E49
100
AcDbVisualStyle
  2
Dim
 70
    11
 71
     2
 72
     2
 73
     0
 90
        0
 40
-0.6
 41
-30.0
 62
     5
 63
     7
421
 16777215
 74
     1
 91
        4
 64
     7
 65
   257
 75
     1
175
     1
 42
1.0
 92
        8
 66
     7
 43
1.0
 76
     1
 77
     6
 78
     2
 67
     7
 79
     5
170
     0
171
     0
290
     0
174
     0
 93
        1
 44
-50.0
173
     0
291
     1
 45
0.0
1001
ACAD
1000
AcDbSavedByObjectVersion
1070
     0
  0
VISUALSTYLE
  5
4E61
102
{ACAD_XDICTIONARY
360
4FA6
102
}
102
{ACAD_REACTORS
330
4E49
102
}
330
4E49
100
AcDbVisualStyle
  2
EdgeColorOff
 70
    22
 71
     2
 72
     2
 73
     0
 90
        0
 40
-0.6
 41
-30.0
 62
     5
 63
     7
421
 16777215
 74
     1
 91
        4
 64
     7
 65
   257
 75
     1
175
     1
 42
1.0
 92
        8
 66
     7
 43
1.0
 76
     1
 77
     6
 78
     2
 67
     7
 79
     5
170
     0
171
     0
290
     0
174
     0
 93
        1
 44
0.0
173
     0
291
     1
 45
0.0
1001
ACAD
1000
AcDbSavedByObjectVersion
1070
     0
  0
VISUALSTYLE
  5
4E58
102
{ACAD_XDICTIONARY
360
4F94
102
}
102
{ACAD_REACTORS
330
4E49
102
}
330
4E49
100
AcDbVisualStyle
  2
Facepattern
 70
    15
 71
     2
 72
     2
 73
     0
 90
        0
 40
-0.6
 41
-30.0
 62
     5
 63
     7
421
 16777215
 74
     1
 91
        4
 64
     7
 65
   257
 75
     1
175
     1
 42
1.0
 92
        8
 66
     7
 43
1.0
 76
     1
 77
     6
 78
     2
 67
     7
 79
     5
170
     0
171
     0
290
     0
174
     0
 93
        1
 44
0.0
173
     0
291
     1
 45
0.0
1001
ACAD
1000
AcDbSavedByObjectVersion
1070
     0
  0
VISUALSTYLE
  5
4E4A
102
{ACAD_XDICTIONARY
360
4F78
102
}
102
{ACAD_REACTORS
330
4E49
102
}
330
4E49
100
AcDbVisualStyle
  2
Flat
 70
     0
 71
     2
 72
     1
 73
     1
 90
        2
 40
-0.6
 41
30.0
 62
     5
 63
     7
421
 16777215
 74
     0
 91
        0
 64
     7
 65
   257
 75
     1
175
     1
 42
1.0
 92
        8
 66
     7
 43
1.0
 76
     1
 77
     6
 78
     2
 67
     7
 79
     5
170
     0
171
     0
290
     0
174
     0
 93
       13
 44
0.0
173
     0
291
     1
 45
0.0
1001
ACAD
1000
AcDbSavedByObjectVersion
1070
     0
  0
VISUALSTYLE
  5
4E4B
102
{ACAD_XDICTIONARY
360
4F7A
102
}
102
{ACAD_REACTORS
330
4E49
102
}
330
4E49
100
AcDbVisualStyle
  2
FlatWithEdges
 70
     1
 71
     2
 72
     1
 73
     1
 90
        2
 40
-0.6
 41
30.0
 62
     5
 63
     7
421
 16777215
 74
     1
 91
        0
 64
     7
 65
   257
 75
     1
175
     1
 42
1.0
 92
        0
 66
   257
 43
1.0
 76
     1
 77
     6
 78
     2
 67
     7
 79
     5
170
     0
171
     0
290
     0
174
     0
 93
       13
 44
0.0
173
     0
291
     1
 45
0.0
1001
ACAD
1000
AcDbSavedByObjectVersion
1070
     0
  0
VISUALSTYLE
  5
4E4C
102
{ACAD_XDICTIONARY
360
4F7C
102
}
102
{ACAD_REACTORS
330
4E49
102
}
330
4E49
100
AcDbVisualStyle
  2
Gouraud
 70
     2
 71
     2
 72
     2
 73
     1
 90
        2
 40
-0.6
 41
30.0
 62
     5
 63
     7
421
 16777215
 74
     0
 91
        0
 64
     7
 65
   257
 75
     1
175
     1
 42
1.0
 92
        0
 66
     7
 43
1.0
 76
     1
 77
     6
 78
     2
 67
     7
 79
     5
170
     0
171
     0
290
     0
174
     0
 93
       13
 44
0.0
173
     0
291
     1
 45
0.0
1001
ACAD
1000
AcDbSavedByObjectVersion
1070
     0
  0
VISUALSTYLE
  5
4E4D
102
{ACAD_XDICTIONARY
360
4F7E
102
}
102
{ACAD_REACTORS
330
4E49
102
}
330
4E49
100
AcDbVisualStyle
  2
GouraudWithEdges
 70
     3
 71
     2
 72
     2
 73
     1
 90
        2
 40
-0.6
 41
30.0
 62
     5
 63
     7
421
 16777215
 74
     1
 91
        0
 64
     7
 65
   257
 75
     1
175
     1
 42
1.0
 92
        0
 66
   257
 43
1.0
 76
     1
 77
     6
 78
     2
 67
     7
 79
     5
170
     0
171
     0
290
     0
174
     0
 93
       13
 44
0.0
173
     0
291
     1
 45
0.0
1001
ACAD
1000
AcDbSavedByObjectVersion
1070
     0
  0
VISUALSTYLE
  5
4E51
102
{ACAD_XDICTIONARY
360
4F86
102
}
102
{ACAD_REACTORS
330
4E49
102
}
330
4E49
100
AcDbVisualStyle
  2
Hidden
 70
     6
 71
     1
 72
     2
 73
     2
 90
        0
 40
-0.6
 41
-30.0
 62
     5
 63
     7
421
 16777215
 74
     2
 91
        2
 64
     7
 65
   257
 75
     2
175
     1
 42
40.0
 92
        0
 66
   257
 43
1.0
 76
     1
 77
     6
 78
     2
 67
     7
 79
     3
170
     0
171
     0
290
     0
174
     0
 93
        1
 44
0.0
173
     0
291
     0
 45
0.0
1001
ACAD
1000
AcDbSavedByObjectVersion
1070
     0
  0
VISUALSTYLE
  5
4E5F
102
{ACAD_XDICTIONARY
360
4FA2
102
}
102
{ACAD_REACTORS
330
4E49
102
}
330
4E49
100
AcDbVisualStyle
  2
JitterOff
 70
    20
 71
     2
 72
     2
 73
     0
 90
        0
 40
-0.6
 41
-30.0
 62
     5
 63
     7
421
 16777215
 74
     1
 91
        4
 64
     7
 65
   257
 75
     1
175
     1
 42
1.0
 92
       10
 66
     7
 43
1.0
 76
     1
 77
     6
 78
     2
 67
     7
 79
     5
170
     0
171
     0
290
     0
174
     0
 93
        1
 44
0.0
173
     0
291
     1
 45
0.0
1001
ACAD
1000
AcDbSavedByObjectVersion
1070
     0
  0
VISUALSTYLE
  5
4E57
102
{ACAD_XDICTIONARY
360
4F92
102
}
102
{ACAD_REACTORS
330
4E49
102
}
330
4E49
100
AcDbVisualStyle
  2
Linepattern
 70
    14
 71
     2
 72
     2
 73
     0
 90
        0
 40
-0.6
 41
-30.0
 62
     5
 63
     7
421
 16777215
 74
     1
 91
        4
 64
     7
 65
   257
 75
     7
175
     7
 42
1.0
 92
        8
 66
     7
 43
1.0
 76
     1
 77
     6
 78
     2
 67
     7
 79
     5
170
     0
171
     0
290
     0
174
     0
 93
        1
 44
0.0
173
     0
291
     1
 45
0.0
1001
ACAD
1000
AcDbSavedByObjectVersion
1070
     0
  0
VISUALSTYLE
  5
4E60
102
{ACAD_XDICTIONARY
360
4FA4
102
}
102
{ACAD_REACTORS
330
4E49
102
}
330
4E49
100
AcDbVisualStyle
  2
OverhangOff
 70
    21
 71
     2
 72
     2
 73
     0
 90
        0
 40
-0.6
 41
-30.0
 62
     5
 63
     7
421
 16777215
 74
     1
 91
        4
 64
     7
 65
   257
 75
     1
175
     1
 42
1.0
 92
        9
 66
     7
 43
1.0
 76
     1
 77
     6
 78
     2
 67
     7
 79
     5
170
     0
171
     0
290
     0
174
     0
 93
        1
 44
0.0
173
     0
291
     1
 45
0.0
1001
ACAD
1000
AcDbSavedByObjectVersion
1070
     0
  0
VISUALSTYLE
  5
4E53
102
{ACAD_XDICTIONARY
360
4F8A
102
}
102
{ACAD_REACTORS
330
4E49
102
}
330
4E49
100
AcDbVisualStyle
  2
Realistic
 70
     8
 71
     2
 72
     3
 73
     0
 90
        2
 40
-0.6
 41
30.0
 62
     5
 63
     7
421
 16777215
 74
     0
 91
        0
 64
     7
 65
   257
 75
     1
175
     1
 42
1.0
 92
        8
 66
   257
 43
1.0
 76
     1
 77
     6
 78
     2
 67
     7
 79
     3
170
     0
171
     0
290
     0
174
     0
 93
       13
 44
0.0
173
     0
291
     0
 45
0.0
1001
ACAD
1000
AcDbSavedByObjectVersion
1070
     0
  0
VISUALSTYLE
  5
4E5E
102
{ACAD_XDICTIONARY
360
4FA0
102
}
102
{ACAD_REACTORS
330
4E49
102
}
330
4E49
100
AcDbVisualStyle
  2
Shaded
 70
    27
 71
     2
 72
     2
 73
     1
 90
        2
 40
-0.6
 41
30.0
 62
     5
 63
     7
421
 16777215
 74
     0
 91
        4
 64
     7
 65
   257
 75
     1
175
     1
 42
1.0
 92
        8
 66
   257
 43
1.0
 76
     1
 77
     6
 78
     2
 67
     8
425
  7895160
 79
     3
170
     0
171
     0
290
     0
174
     0
 93
        5
 44
0.0
173
     0
291
     0
 45
0.0
1001
ACAD
1000
AcDbSavedByObjectVersion
1070
     0
  0
VISUALSTYLE
  5
4E5D
102
{ACAD_XDICTIONARY
360
4F9E
102
}
102
{ACAD_REACTORS
330
4E49
102
}
330
4E49
100
AcDbVisualStyle
  2
Shaded with edges
 70
    26
 71
     2
 72
     2
 73
     1
 90
        2
 40
-0.6
 41
30.0
 62
     5
 63
     7
421
 16777215
 74
     1
 91
       10
 64
     7
 65
   257
 75
     2
175
     1
 42
1.0
 92
        8
 66
   257
 43
1.0
 76
     1
 77
     6
 78
     2
 67
     7
 79
     3
170
     0
171
     0
290
     0
174
     0
 93
        5
 44
0.0
173
     0
291
     0
 45
0.0
1001
ACAD
1000
AcDbSavedByObjectVersion
1070
     0
  0
VISUALSTYLE
  5
4E5A
102
{ACAD_XDICTIONARY
360
4F98
102
}
102
{ACAD_REACTORS
330
4E49
102
}
330
4E49
100
AcDbVisualStyle
  2
Shades of Gray
 70
    23
 71
     2
 72
     2
 73
     3
 90
        0
 40
-0.6
 41
-30.0
 62
     5
 63
     7
421
 16777215
 74
     2
 91
        2
 64
     7
 65
     7
 75
     1
175
     1
 42
40.0
 92
        8
 66
     7
 43
1.0
 76
     1
 77
     6
 78
     2
 67
     7
 79
     3
170
     0
171
     0
290
     0
174
     0
 93
        1
 44
0.0
173
     0
291
     0
 45
0.0
1001
ACAD
1000
AcDbSavedByObjectVersion
1070
     0
  0
VISUALSTYLE
  5
4E5B
102
{ACAD_XDICTIONARY
360
4F9A
102
}
102
{ACAD_REACTORS
330
4E49
102
}
330
4E49
100
AcDbVisualStyle
  2
Sketchy
 70
    24
 71
     1
 72
     2
 73
     2
 90
        0
 40
-0.6
 41
-30.0
 62
     5
 63
     7
421
 16777215
 74
     2
 91
        2
 64
     7
 65
     7
 75
     1
175
     1
 42
40.0
 92
       11
 66
     7
 43
1.0
 76
     1
 77
     6
 78
     2
 67
     7
 79
     6
170
     0
171
     0
290
     0
174
     0
 93
        1
 44
0.0
173
     0
291
     0
 45
0.0
1001
ACAD
1000
AcDbSavedByObjectVersion
1070
     0
  0
VISUALSTYLE
  5
4E56
102
{ACAD_XDICTIONARY
360
4F90
102
}
102
{ACAD_REACTORS
330
4E49
102
}
330
4E49
100
AcDbVisualStyle
  2
Thicken
 70
    13
 71
     2
 72
     2
 73
     0
 90
        0
 40
-0.6
 41
-30.0
 62
     5
 63
     7
421
 16777215
 74
     1
 91
        4
 64
     7
 65
   257
 75
     1
175
     1
 42
1.0
 92
       12
 66
     7
 43
1.0
 76
     1
 77
     6
 78
     2
 67
     7
 79
     5
170
     0
171
     0
290
     0
174
     0
 93
        1
 44
0.0
173
     0
291
     1
 45
0.0
1001
ACAD
1000
AcDbSavedByObjectVersion
1070
     0
  0
VISUALSTYLE
  5
4E50
102
{ACAD_XDICTIONARY
360
4F84
102
}
102
{ACAD_REACTORS
330
4E49
102
}
330
4E49
100
AcDbVisualStyle
  2
Wireframe
 70
     5
 71
     0
 72
     2
 73
     0
 90
        0
 40
-0.6
 41
-30.0
 62
     5
 63
     7
421
 16777215
 74
     1
 91
        4
 64
     7
 65
   257
 75
     1
175
     1
 42
1.0
 92
        0
 66
   257
 43
1.0
 76
     1
 77
     6
 78
     2
 67
     7
 79
     3
170
     0
171
     0
290
     0
174
     0
 93
        1
 44
0.0
173
     0
291
     0
 45
0.0
1001
ACAD
1000
AcDbSavedByObjectVersion
1070
     0
  0
VISUALSTYLE
  5
4E5C
102
{ACAD_XDICTIONARY
360
4F9C
102
}
102
{ACAD_REACTORS
330
4E49
102
}
330
4E49
100
AcDbVisualStyle
  2
X-Ray
 70
    25
 71
     2
 72
     2
 73
     1
 90
        1
 40
0.5
 41
-30.0
 62
     5
 63
     7
421
 16777215
 74
     1
 91
        0
 64
     7
 65
   257
 75
     1
175
     1
 42
1.0
 92
        8
 66
     7
 43
1.0
 76
     1
 77
     6
 78
     2
 67
     7
 79
     3
170
     0
171
     0
290
     0
174
     0
 93
       13
 44
0.0
173
     0
291
     0
 45
0.0
1001
ACAD
1000
AcDbSavedByObjectVersion
1070
     0
  0
DICTIONARYVAR
  5
4EF2
102
{ACAD_REACTORS
330
7F0
102
}
330
7F0
100
DictionaryVariables
280
     0
  1
1:1
  0
DICTIONARYVAR
  5
4EEE
102
{ACAD_REACTORS
330
7F0
102
}
330
7F0
100
DictionaryVariables
280
     0
  1
STANDARD
  0
DICTIONARYVAR
  5
4EED
102
{ACAD_REACTORS
330
7F0
102
}
330
7F0
100
DictionaryVariables
280
     0
  1
STANDARD
  0
DICTIONARYVAR
  5
4EEF
102
{ACAD_REACTORS
330
7F0
102
}
330
7F0
100
DictionaryVariables
280
     0
  1
Metric50
  0
DICTIONARYVAR
  5
4EF0
102
{ACAD_REACTORS
330
7F0
102
}
330
7F0
100
DictionaryVariables
280
     0
  1
Metric50
  0
DICTIONARYVAR
  5
2479
102
{ACAD_REACTORS
330
7F0
102
}
330
7F0
100
DictionaryVariables
280
     0
  1
1
  0
DICTIONARYVAR
  5
4EF4
102
{ACAD_REACTORS
330
7F0
102
}
330
7F0
100
DictionaryVariables
280
     0
  1
1
  0
DICTIONARYVAR
  5
4EF5
102
{ACAD_REACTORS
330
7F0
102
}
330
7F0
100
DictionaryVariables
280
     0
  1
15
  0
DICTIONARYVAR
  5
4EF3
102
{ACAD_REACTORS
330
7F0
102
}
330
7F0
100
DictionaryVariables
280
     0
  1
0
  0
DICTIONARYVAR
  5
4EF1
102
{ACAD_REACTORS
330
7F0
102
}
330
7F0
100
DictionaryVariables
280
     0
  1
0
  0
DICTIONARYVAR
  5
7F1
102
{ACAD_REACTORS
330
7F0
102
}
330
7F0
100
DictionaryVariables
280
     0
  1
96
  0
DICTIONARYVAR
  5
4F67
102
{ACAD_REACTORS
330
7F0
102
}
330
7F0
100
DictionaryVariables
280
     0
  1
2
  0
DICTIONARY
  5
4F72
102
{ACAD_REACTORS
330
4F70
102
}
330
4F70
100
AcDbDictionary
281
     1
  0
DICTIONARY
  5
4F71
102
{ACAD_REACTORS
330
4F70
102
}
330
4F70
100
AcDbDictionary
281
     1
  3
140695673413936
350
4F6B
  3
140695673413952
350
4F6C
  3
140695673413968
350
4F6D
  3
140695673413984
350
4F6E
  3
140695673414000
350
4F6F
  0
DICTIONARY
  5
4E3A
330
4E39
100
AcDbDictionary
280
     1
281
     1
  3
ACAD_XREC_ROUNDTRIP
360
4F76
  3
BUMPTILE
360
4E3C
  3
DIFFUSETILE
360
4E3B
  3
OPACITYTILE
360
4E3F
  3
REFLECTIONTILE
360
4E3E
  3
REFRACTIONTILE
360
4E40
  3
SPECULARTILE
360
4E3D
  0
DICTIONARY
  5
4E32
330
4E31
100
AcDbDictionary
280
     1
281
     1
  3
ACAD_XREC_ROUNDTRIP
360
4F75
  3
BUMPTILE
360
4E34
  3
DIFFUSETILE
360
4E33
  3
OPACITYTILE
360
4E37
  3
REFLECTIONTILE
360
4E36
  3
REFRACTIONTILE
360
4E38
  3
SPECULARTILE
360
4E35
  0
DICTIONARY
  5
4E42
330
4E41
100
AcDbDictionary
280
     1
281
     1
  3
ACAD_XREC_ROUNDTRIP
360
4F77
  3
BUMPTILE
360
4E44
  3
DIFFUSETILE
360
4E43
  3
OPACITYTILE
360
4E47
  3
REFLECTIONTILE
360
4E46
  3
REFRACTIONTILE
360
4E48
  3
SPECULARTILE
360
4E45
  0
DICTIONARY
  5
4FAA
330
4E78
100
AcDbDictionary
280
     1
281
     1
  3
ACAD_XREC_ROUNDTRIP
360
4FAB
  0
DICTIONARY
  5
4F68
330
4E64
100
AcDbDictionary
280
     1
281
     1
  3
ACAD_ROUNDTRIP_2008_TABLESTYLE_CELLSTYLEMAP
360
4F69
  3
ACAD_XREC_ROUNDTRIP
360
4FA8
  0
DICTIONARY
  5
4F82
330
4E4F
100
AcDbDictionary
280
     1
281
     1
  3
ACAD_XREC_ROUNDTRIP
360
4F83
  0
DICTIONARY
  5
4F80
330
4E4E
100
AcDbDictionary
280
     1
281
     1
  3
ACAD_XREC_ROUNDTRIP
360
4F81
  0
DICTIONARY
  5
4F8E
330
4E55
100
AcDbDictionary
280
     1
281
     1
  3
ACAD_XREC_ROUNDTRIP
360
4F8F
  0
DICTIONARY
  5
4F96
330
4E59
100
AcDbDictionary
280
     1
281
     1
  3
ACAD_XREC_ROUNDTRIP
360
4F97
  0
DICTIONARY
  5
4F88
330
4E52
100
AcDbDictionary
280
     1
281
     1
  3
ACAD_XREC_ROUNDTRIP
360
4F89
  0
DICTIONARY
  5
4F8C
330
4E54
100
AcDbDictionary
280
     1
281
     1
  3
ACAD_XREC_ROUNDTRIP
360
4F8D
  0
DICTIONARY
  5
4FA6
330
4E61
100
AcDbDictionary
280
     1
281
     1
  3
ACAD_XREC_ROUNDTRIP
360
4FA7
  0
DICTIONARY
  5
4F94
330
4E58
100
AcDbDictionary
280
     1
281
     1
  3
ACAD_XREC_ROUNDTRIP
360
4F95
  0
DICTIONARY
  5
4F78
330
4E4A
100
AcDbDictionary
280
     1
281
     1
  3
ACAD_XREC_ROUNDTRIP
360
4F79
  0
DICTIONARY
  5
4F7A
330
4E4B
100
AcDbDictionary
280
     1
281
     1
  3
ACAD_XREC_ROUNDTRIP
360
4F7B
  0
DICTIONARY
  5
4F7C
330
4E4C
100
AcDbDictionary
280
     1
281
     1
  3
ACAD_XREC_ROUNDTRIP
360
4F7D
  0
DICTIONARY
  5
4F7E
330
4E4D
100
AcDbDictionary
280
     1
281
     1
  3
ACAD_XREC_ROUNDTRIP
360
4F7F
  0
DICTIONARY
  5
4F86
330
4E51
100
AcDbDictionary
280
     1
281
     1
  3
ACAD_XREC_ROUNDTRIP
360
4F87
  0
DICTIONARY
  5
4FA2
330
4E5F
100
AcDbDictionary
280
     1
281
     1
  3
ACAD_XREC_ROUNDTRIP
360
4FA3
  0
DICTIONARY
  5
4F92
330
4E57
100
AcDbDictionary
280
     1
281
     1
  3
ACAD_XREC_ROUNDTRIP
360
4F93
  0
DICTIONARY
  5
4FA4
330
4E60
100
AcDbDictionary
280
     1
281
     1
  3
ACAD_XREC_ROUNDTRIP
360
4FA5
  0
DICTIONARY
  5
4F8A
330
4E53
100
AcDbDictionary
280
     1
281
     1
  3
ACAD_XREC_ROUNDTRIP
360
4F8B
  0
DICTIONARY
  5
4FA0
330
4E5E
100
AcDbDictionary
280
     1
281
     1
  3
ACAD_XREC_ROUNDTRIP
360
4FA1
  0
DICTIONARY
  5
4F9E
330
4E5D
100
AcDbDictionary
280
     1
281
     1
  3
ACAD_XREC_ROUNDTRIP
360
4F9F
  0
DICTIONARY
  5
4F98
330
4E5A
100
AcDbDictionary
280
     1
281
     1
  3
ACAD_XREC_ROUNDTRIP
360
4F99
  0
DICTIONARY
  5
4F9A
330
4E5B
100
AcDbDictionary
280
     1
281
     1
  3
ACAD_XREC_ROUNDTRIP
360
4F9B
  0
DICTIONARY
  5
4F90
330
4E56
100
AcDbDictionary
280
     1
281
     1
  3
ACAD_XREC_ROUNDTRIP
360
4F91
  0
DICTIONARY
  5
4F84
330
4E50
100
AcDbDictionary
280
     1
281
     1
  3
ACAD_XREC_ROUNDTRIP
360
4F85
  0
DICTIONARY
  5
4F9C
330
4E5C
100
AcDbDictionary
280
     1
281
     1
  3
ACAD_XREC_ROUNDTRIP
360
4F9D
  0
XRECORD
  5
4F6B
102
{ACAD_REACTORS
330
4F71
102
}
330
4F71
100
AcDbXrecord
280
     1
  1
AcDb_Thumbnail_Schema
102
{ATTRRECORD
341
4F6C
  2
AcDbDs::TreatedAsObjectData
280
     1
291
     1
102
ATTRRECORD}
102
{ATTRRECORD
341
4F6D
  2
AcDbDs::Legacy
280
     1
291
     1
102
ATTRRECORD}
  2
AcDbDs::ID
280
    10
 91
        8
102
{ATTRRECORD
341
4F6E
  2
AcDs:Indexable
280
     1
291
     1
102
ATTRRECORD}
102
{ATTRRECORD
341
4F6F
  2
AcDbDs::HandleAttribute
280
     7
282
     1
102
ATTRRECORD}
  2
Thumbnail_Data
280
    15
 91
        0
  0
XRECORD
  5
4F6C
102
{ACAD_REACTORS
330
4F71
102
}
330
4F71
100
AcDbXrecord
280
     1
  1
AcDbDs::TreatedAsObjectDataSchema
  2
AcDbDs::TreatedAsObjectData
280
     1
 91
        0
  0
XRECORD
  5
4F6D
102
{ACAD_REACTORS
330
4F71
102
}
330
4F71
100
AcDbXrecord
280
     1
  1
AcDbDs::LegacySchema
  2
AcDbDs::Legacy
280
     1
 91
        0
  0
XRECORD
  5
4F6E
102
{ACAD_REACTORS
330
4F71
102
}
330
4F71
100
AcDbXrecord
280
     1
  1
AcDbDs::IndexedPropertySchema
  2
AcDs:Indexable
280
     1
 91
        0
  0
XRECORD
  5
4F6F
102
{ACAD_REACTORS
330
4F71
102
}
330
4F71
100
AcDbXrecord
280
     1
  1
AcDbDs::HandleAttributeSchema
  2
AcDbDs::HandleAttribute
280
     7
 91
        1
284
     1
  0
XRECORD
  5
4F76
102
{ACAD_REACTORS
330
4E3A
102
}
330
4E3A
100
AcDbXrecord
280
     1
102
MATERIAL
148
0.0
149
0.0
149
0.0
 93
        0
 94
      127
282
     0
 72
     0
 77
     0
171
     0
175
     0
179
     0
273
     0
  0
XRECORD
  5
4E3C
102
{ACAD_REACTORS
330
4E3A
102
}
330
4E3A
100
AcDbXrecord
280
     1
270
     1
271
     1
  0
XRECORD
  5
4E3B
102
{ACAD_REACTORS
330
4E3A
102
}
330
4E3A
100
AcDbXrecord
280
     1
270
     1
271
     1
  0
XRECORD
  5
4E3F
102
{ACAD_REACTORS
330
4E3A
102
}
330
4E3A
100
AcDbXrecord
280
     1
270
     1
271
     1
  0
XRECORD
  5
4E3E
102
{ACAD_REACTORS
330
4E3A
102
}
330
4E3A
100
AcDbXrecord
280
     1
270
     1
271
     1
  0
XRECORD
  5
4E40
102
{ACAD_REACTORS
330
4E3A
102
}
330
4E3A
100
AcDbXrecord
280
     1
270
     1
271
     1
  0
XRECORD
  5
4E3D
102
{ACAD_REACTORS
330
4E3A
102
}
330
4E3A
100
AcDbXrecord
280
     1
270
     1
271
     1
  0
XRECORD
  5
4F75
102
{ACAD_REACTORS
330
4E32
102
}
330
4E32
100
AcDbXrecord
280
     1
102
MATERIAL
148
0.0
149
0.0
149
0.0
 93
        0
 94
      127
282
     0
 72
     0
 77
     0
171
     0
175
     0
179
     0
273
     0
  0
XRECORD
  5
4E34
102
{ACAD_REACTORS
330
4E32
102
}
330
4E32
100
AcDbXrecord
280
     1
270
     1
271
     1
  0
XRECORD
  5
4E33
102
{ACAD_REACTORS
330
4E32
102
}
330
4E32
100
AcDbXrecord
280
     1
270
     1
271
     1
  0
XRECORD
  5
4E37
102
{ACAD_REACTORS
330
4E32
102
}
330
4E32
100
AcDbXrecord
280
     1
270
     1
271
     1
  0
XRECORD
  5
4E36
102
{ACAD_REACTORS
330
4E32
102
}
330
4E32
100
AcDbXrecord
280
     1
270
     1
271
     1
  0
XRECORD
  5
4E38
102
{ACAD_REACTORS
330
4E32
102
}
330
4E32
100
AcDbXrecord
280
     1
270
     1
271
     1
  0
XRECORD
  5
4E35
102
{ACAD_REACTORS
330
4E32
102
}
330
4E32
100
AcDbXrecord
280
     1
270
     1
271
     1
  0
XRECORD
  5
4F77
102
{ACAD_REACTORS
330
4E42
102
}
330
4E42
100
AcDbXrecord
280
     1
102
MATERIAL
148
0.0
149
0.0
149
0.0
 93
        0
 94
      127
282
     0
 72
     0
 77
     0
171
     0
175
     0
179
     0
273
     0
  0
XRECORD
  5
4E44
102
{ACAD_REACTORS
330
4E42
102
}
330
4E42
100
AcDbXrecord
280
     1
270
     1
271
     1
  0
XRECORD
  5
4E43
102
{ACAD_REACTORS
330
4E42
102
}
330
4E42
100
AcDbXrecord
280
     1
270
     1
271
     1
  0
XRECORD
  5
4E47
102
{ACAD_REACTORS
330
4E42
102
}
330
4E42
100
AcDbXrecord
280
     1
270
     1
271
     1
  0
XRECORD
  5
4E46
102
{ACAD_REACTORS
330
4E42
102
}
330
4E42
100
AcDbXrecord
280
     1
270
     1
271
     1
  0
XRECORD
  5
4E48
102
{ACAD_REACTORS
330
4E42
102
}
330
4E42
100
AcDbXrecord
280
     1
270
     1
271
     1
  0
XRECORD
  5
4E45
102
{ACAD_REACTORS
330
4E42
102
}
330
4E42
100
AcDbXrecord
280
     1
270
     1
271
     1
  0
XRECORD
  5
4FAB
102
{ACAD_REACTORS
330
4FAA
102
}
330
4FAA
100
AcDbXrecord
280
     1
102
ACAD_ROUNDTRIP_2012_MLEADER_STYLE
298
     1
  0
CELLSTYLEMAP
  5
4F69
102
{ACAD_REACTORS
330
4F68
102
}
330
4F68
100
AcDbCellStyleMap
 90
        3
300
CELLSTYLE
  1
TABLEFORMAT_BEGIN
 90
        5
170
     1
 91
        0
 92
    32768
 62
   257
 93
        1
300
CONTENTFORMAT
  1
CONTENTFORMAT_BEGIN
 90
        0
 91
        0
 92
      512
 93
        0
300

 40
0.0
140
1.0
 94
        5
 62
     0
340
F
144
6.0
309
CONTENTFORMAT_END
171
     1
301
MARGIN
  1
CELLMARGIN_BEGIN
 40
1.5
 40
1.5
 40
1.5
 40
1.5
 40
4.5
 40
4.5
309
CELLMARGIN_END
 94
        6
 95
        1
302
GRIDFORMAT
  1
GRIDFORMAT_BEGIN
 90
        0
 91
        1
 62
     0
 92
       -2
340
0
 93
        0
 40
1.125
309
GRIDFORMAT_END
 95
        2
302
GRIDFORMAT
  1
GRIDFORMAT_BEGIN
 90
        0
 91
        1
 62
     0
 92
       -2
340
0
 93
        0
 40
1.125
309
GRIDFORMAT_END
 95
        4
302
GRIDFORMAT
  1
GRIDFORMAT_BEGIN
 90
        0
 91
        1
 62
     0
 92
       -2
340
0
 93
        0
 40
1.125
309
GRIDFORMAT_END
 95
        8
302
GRIDFORMAT
  1
GRIDFORMAT_BEGIN
 90
        0
 91
        1
 62
     0
 92
       -2
340
0
 93
        0
 40
1.125
309
GRIDFORMAT_END
 95
       16
302
GRIDFORMAT
  1
GRIDFORMAT_BEGIN
 90
        0
 91
        1
 62
     0
 92
       -2
340
0
 93
        0
 40
1.125
309
GRIDFORMAT_END
 95
       32
302
GRIDFORMAT
  1
GRIDFORMAT_BEGIN
 90
        0
 91
        1
 62
     0
 92
       -2
340
0
 93
        0
 40
1.125
309
GRIDFORMAT_END
309
TABLEFORMAT_END
  1
CELLSTYLE_BEGIN
 90
        1
 91
        1
300
_TITLE
309
CELLSTYLE_END
300
CELLSTYLE
  1
TABLEFORMAT_BEGIN
 90
        5
170
     1
 91
        0
 92
        0
 62
   257
 93
        1
300
CONTENTFORMAT
  1
CONTENTFORMAT_BEGIN
 90
        0
 91
        0
 92
      512
 93
        0
300

 40
0.0
140
1.0
 94
        5
 62
     0
340
F
144
4.5
309
CONTENTFORMAT_END
171
     1
301
MARGIN
  1
CELLMARGIN_BEGIN
 40
1.5
 40
1.5
 40
1.5
 40
1.5
 40
4.5
 40
4.5
309
CELLMARGIN_END
 94
        6
 95
        1
302
GRIDFORMAT
  1
GRIDFORMAT_BEGIN
 90
        0
 91
        1
 62
     0
 92
       -2
340
0
 93
        0
 40
1.125
309
GRIDFORMAT_END
 95
        2
302
GRIDFORMAT
  1
GRIDFORMAT_BEGIN
 90
        0
 91
        1
 62
     0
 92
       -2
340
0
 93
        0
 40
1.125
309
GRIDFORMAT_END
 95
        4
302
GRIDFORMAT
  1
GRIDFORMAT_BEGIN
 90
        0
 91
        1
 62
     0
 92
       -2
340
0
 93
        0
 40
1.125
309
GRIDFORMAT_END
 95
        8
302
GRIDFORMAT
  1
GRIDFORMAT_BEGIN
 90
        0
 91
        1
 62
     0
 92
       -2
340
0
 93
        0
 40
1.125
309
GRIDFORMAT_END
 95
       16
302
GRIDFORMAT
  1
GRIDFORMAT_BEGIN
 90
        0
 91
        1
 62
     0
 92
       -2
340
0
 93
        0
 40
1.125
309
GRIDFORMAT_END
 95
       32
302
GRIDFORMAT
  1
GRIDFORMAT_BEGIN
 90
        0
 91
        1
 62
     0
 92
       -2
340
0
 93
        0
 40
1.125
309
GRIDFORMAT_END
309
TABLEFORMAT_END
  1
CELLSTYLE_BEGIN
 90
        2
 91
        1
300
_HEADER
309
CELLSTYLE_END
300
CELLSTYLE
  1
TABLEFORMAT_BEGIN
 90
        5
170
     1
 91
        0
 92
        0
 62
   257
 93
        1
300
CONTENTFORMAT
  1
CONTENTFORMAT_BEGIN
 90
        0
 91
        0
 92
      512
 93
        0
300

 40
0.0
140
1.0
 94
        2
 62
     0
340
F
144
4.5
309
CONTENTFORMAT_END
171
     1
301
MARGIN
  1
CELLMARGIN_BEGIN
 40
1.5
 40
1.5
 40
1.5
 40
1.5
 40
4.5
 40
4.5
309
CELLMARGIN_END
 94
        6
 95
        1
302
GRIDFORMAT
  1
GRIDFORMAT_BEGIN
 90
        0
 91
        1
 62
     0
 92
       -2
340
0
 93
        0
 40
1.125
309
GRIDFORMAT_END
 95
        2
302
GRIDFORMAT
  1
GRIDFORMAT_BEGIN
 90
        0
 91
        1
 62
     0
 92
       -2
340
0
 93
        0
 40
1.125
309
GRIDFORMAT_END
 95
        4
302
GRIDFORMAT
  1
GRIDFORMAT_BEGIN
 90
        0
 91
        1
 62
     0
 92
       -2
340
0
 93
        0
 40
1.125
309
GRIDFORMAT_END
 95
        8
302
GRIDFORMAT
  1
GRIDFORMAT_BEGIN
 90
        0
 91
        1
 62
     0
 92
       -2
340
0
 93
        0
 40
1.125
309
GRIDFORMAT_END
 95
       16
302
GRIDFORMAT
  1
GRIDFORMAT_BEGIN
 90
        0
 91
        1
 62
     0
 92
       -2
340
0
 93
        0
 40
1.125
309
GRIDFORMAT_END
 95
       32
302
GRIDFORMAT
  1
GRIDFORMAT_BEGIN
 90
        0
 91
        1
 62
     0
 92
       -2
340
0
 93
        0
 40
1.125
309
GRIDFORMAT_END
309
TABLEFORMAT_END
  1
CELLSTYLE_BEGIN
 90
        3
 91
        2
300
_DATA
309
CELLSTYLE_END
  0
XRECORD
  5
4FA8
102
{ACAD_REACTORS
330
4F68
102
}
330
4F68
100
AcDbXrecord
280
     1
102
ACAD_ROUNDTRIP_PRE2007_TABLESTYLE
 90
      512
 91
        0
  1

 92
      512
 93
        0
  2

 94
      512
 95
        0
  3

  0
XRECORD
  5
4F83
102
{ACAD_REACTORS
330
4F82
102
}
330
4F82
100
AcDbXrecord
280
     1
102
RTVSPost2010Prop28
280
     1
102
RTVSPost2010PropOp28
 70
     1
102
RTVSPost2010Prop29
280
     1
102
RTVSPost2010PropOp29
 70
     1
102
RTVSPost2010Prop30
280
     0
102
RTVSPost2010PropOp30
 70
     1
102
RTVSPost2010Prop31
280
     0
102
RTVSPost2010PropOp31
 70
     1
102
RTVSPost2010Prop32
280
     0
102
RTVSPost2010PropOp32
 70
     1
102
RTVSPost2010Prop33
280
     0
102
RTVSPost2010PropOp33
 70
     1
102
RTVSPost2010Prop34
280
     0
102
RTVSPost2010PropOp34
 70
     1
102
RTVSPost2010Prop35
280
     0
102
RTVSPost2010PropOp35
 70
     1
102
RTVSPost2010Prop36
280
     0
102
RTVSPost2010PropOp36
 70
     1
102
RTVSPost2010Prop37
 90
       50
102
RTVSPost2010PropOp37
 70
     1
102
RTVSPost2010Prop38
140
0.0
102
RTVSPost2010PropOp38
 70
     1
102
RTVSPost2010Prop39
140
1.0
102
RTVSPost2010PropOp39
 70
     1
102
RTVSPost2010Prop40
 90
        0
102
RTVSPost2010PropOp40
 70
     1
102
RTVSPost2010Prop41ColorIndex
 90
       18
102
RTVSPost2010Prop41ColorRGB
 90
        0
102
RTVSPost2010PropOp41
 70
     1
102
RTVSPost2010Prop42
 90
       50
102
RTVSPost2010PropOp42
 70
     1
102
RTVSPost2010Prop43
 90
        3
102
RTVSPost2010PropOp43
 70
     1
102
RTVSPost2010Prop44ColorIndex
 90
        5
102
RTVSPost2010Prop44ColorRGB
 90
      255
102
RTVSPost2010PropOp44
 70
     1
102
RTVSPost2010Prop45
280
     0
102
RTVSPost2010PropOp45
 70
     1
102
RTVSPost2010Prop46
 90
       50
102
RTVSPost2010PropOp46
 70
     1
102
RTVSPost2010Prop47
 90
       50
102
RTVSPost2010PropOp47
 70
     1
102
RTVSPost2010Prop48
 90
       50
102
RTVSPost2010PropOp48
 70
     1
102
RTVSPost2010Prop49
280
     0
102
RTVSPost2010PropOp49
 70
     1
102
RTVSPost2010Prop50
 90
       50
102
RTVSPost2010PropOp50
 70
     1
102
RTVSPost2010Prop51ColorIndex
 90
      256
102
RTVSPost2010Prop51ColorRGB
 90
-16777216
102
RTVSPost2010PropOp51
 70
     0
102
RTVSPost2010Prop52
140
1.0
102
RTVSPost2010PropOp52
 70
     0
102
RTVSPost2010Prop53
 90
        2
102
RTVSPost2010PropOp53
 70
     1
102
RTVSPost2010Prop54
  1
strokes_ogs.tif
102
RTVSPost2010PropOp54
 70
     1
102
RTVSPost2010Prop55
280
     0
102
RTVSPost2010PropOp55
 70
     1
102
RTVSPost2010Prop56
140
1.0
102
RTVSPost2010PropOp56
 70
     1
102
RTVSPost2010Prop57
140
1.0
102
RTVSPost2010PropOp57
 70
     1
102
RTVSPropertyOp0
 70
     1
102
RTVSPropertyOp1
 70
     1
102
RTVSPropertyOp2
 70
     1
102
RTVSPropertyOp3
 70
     1
102
RTVSPropertyOp4
 70
     1
102
RTVSPropertyOp5
 70
     1
102
RTVSPropertyOp6
 70
     1
102
RTVSPropertyOp7
 70
     1
102
RTVSPropertyOp8
 70
     1
102
RTVSPropertyOp9
 70
     1
102
RTVSPropertyOp10
 70
     1
102
RTVSPropertyOp11
 70
     1
102
RTVSPropertyOp12
 70
     1
102
RTVSPropertyOp13
 70
     1
102
RTVSPropertyOp14
 70
     1
102
RTVSPropertyOp15
 70
     1
102
RTVSPropertyOp16
 70
     1
102
RTVSPropertyOp17
 70
     1
102
RTVSPropertyOp18
 70
     1
102
RTVSPropertyOp19
 70
     1
102
RTVSPropertyOp20
 70
     1
102
RTVSPropertyOp21
 70
     1
102
RTVSPropertyOp22
 70
     1
102
RTVSPropertyOp23
 70
     1
102
RTVSPropertyOp24
 70
     1
102
RTVSPropertyOp25
 70
     1
102
RTVSPropertyOp26
 70
     1
102
RTVSPropertyOp27
 70
     1
102
RTVSPropertyOp28
 70
     1
102
RTVSPropertyOp29
 70
     1
102
RTVSPropertyOp30
 70
     1
102
RTVSPropertyOp31
 70
     1
102
RTVSPropertyOp32
 70
     1
102
RTVSPropertyOp33
 70
     1
102
RTVSPropertyOp34
 70
     1
102
RTVSPropertyOp35
 70
     1
102
RTVSPropertyOp36
 70
     1
102
RTVSPropertyOp37
 70
     1
102
RTVSPropertyOp38
 70
     1
102
RTVSPropertyOp39
 70
     1
102
RTVSPropertyOp40
 70
     1
102
RTVSPropertyOp41
 70
     1
102
RTVSPropertyOp42
 70
     1
102
RTVSPropertyOp43
 70
     1
102
RTVSPropertyOp44
 70
     1
102
RTVSPropertyOp45
 70
     1
102
RTVSPropertyOp46
 70
     1
102
RTVSPropertyOp47
 70
     1
102
RTVSPropertyOp48
 70
     1
102
RTVSPropertyOp49
 70
     1
102
RTVSPropertyOp50
 70
     1
102
RTVSPropertyOp51
 70
     0
102
RTVSPropertyOp52
 70
     0
102
RTVSPropertyOp53
 70
     1
102
RTVSPropertyOp54
 70
     1
102
RTVSPropertyOp55
 70
     1
102
RTVSPropertyOp56
 70
     1
102
RTVSPropertyOp57
 70
     1
102
RTVSPropertyOp58
 70
     1
102
RTVSPropertyOp59
 70
     1
102
RTVSPropertyOp60
 70
     1
102
RTVSPropertyOp61
 70
     1
102
RTVSPropertyOp62
 70
     1
  0
XRECORD
  5
4F81
102
{ACAD_REACTORS
330
4F80
102
}
330
4F80
100
AcDbXrecord
280
     1
102
RTVSPost2010Prop28
280
     0
102
RTVSPost2010PropOp28
 70
     1
102
RTVSPost2010Prop29
280
     1
102
RTVSPost2010PropOp29
 70
     1
102
RTVSPost2010Prop30
280
     1
102
RTVSPost2010PropOp30
 70
     1
102
RTVSPost2010Prop31
280
     0
102
RTVSPost2010PropOp31
 70
     1
102
RTVSPost2010Prop32
280
     0
102
RTVSPost2010PropOp32
 70
     1
102
RTVSPost2010Prop33
280
     0
102
RTVSPost2010PropOp33
 70
     1
102
RTVSPost2010Prop34
280
     0
102
RTVSPost2010PropOp34
 70
     1
102
RTVSPost2010Prop35
280
     0
102
RTVSPost2010PropOp35
 70
     1
102
RTVSPost2010Prop36
280
     0
102
RTVSPost2010PropOp36
 70
     1
102
RTVSPost2010Prop37
 90
       50
102
RTVSPost2010PropOp37
 70
     1
102
RTVSPost2010Prop38
140
0.0
102
RTVSPost2010PropOp38
 70
     1
102
RTVSPost2010Prop39
140
1.0
102
RTVSPost2010PropOp39
 70
     1
102
RTVSPost2010Prop40
 90
        0
102
RTVSPost2010PropOp40
 70
     1
102
RTVSPost2010Prop41ColorIndex
 90
       18
102
RTVSPost2010Prop41ColorRGB
 90
        0
102
RTVSPost2010PropOp41
 70
     1
102
RTVSPost2010Prop42
 90
       50
102
RTVSPost2010PropOp42
 70
     1
102
RTVSPost2010Prop43
 90
        3
102
RTVSPost2010PropOp43
 70
     1
102
RTVSPost2010Prop44ColorIndex
 90
        5
102
RTVSPost2010Prop44ColorRGB
 90
      255
102
RTVSPost2010PropOp44
 70
     1
102
RTVSPost2010Prop45
280
     0
102
RTVSPost2010PropOp45
 70
     1
102
RTVSPost2010Prop46
 90
       50
102
RTVSPost2010PropOp46
 70
     1
102
RTVSPost2010Prop47
 90
       50
102
RTVSPost2010PropOp47
 70
     1
102
RTVSPost2010Prop48
 90
       50
102
RTVSPost2010PropOp48
 70
     1
102
RTVSPost2010Prop49
280
     0
102
RTVSPost2010PropOp49
 70
     1
102
RTVSPost2010Prop50
 90
       50
102
RTVSPost2010PropOp50
 70
     1
102
RTVSPost2010Prop51ColorIndex
 90
      256
102
RTVSPost2010Prop51ColorRGB
 90
-16777216
102
RTVSPost2010PropOp51
 70
     0
102
RTVSPost2010Prop52
140
1.0
102
RTVSPost2010PropOp52
 70
     0
102
RTVSPost2010Prop53
 90
        2
102
RTVSPost2010PropOp53
 70
     1
102
RTVSPost2010Prop54
  1
strokes_ogs.tif
102
RTVSPost2010PropOp54
 70
     1
102
RTVSPost2010Prop55
280
     0
102
RTVSPost2010PropOp55
 70
     1
102
RTVSPost2010Prop56
140
1.0
102
RTVSPost2010PropOp56
 70
     1
102
RTVSPost2010Prop57
140
1.0
102
RTVSPost2010PropOp57
 70
     1
102
RTVSPropertyOp0
 70
     1
102
RTVSPropertyOp1
 70
     1
102
RTVSPropertyOp2
 70
     1
102
RTVSPropertyOp3
 70
     1
102
RTVSPropertyOp4
 70
     1
102
RTVSPropertyOp5
 70
     1
102
RTVSPropertyOp6
 70
     1
102
RTVSPropertyOp7
 70
     1
102
RTVSPropertyOp8
 70
     1
102
RTVSPropertyOp9
 70
     1
102
RTVSPropertyOp10
 70
     1
102
RTVSPropertyOp11
 70
     1
102
RTVSPropertyOp12
 70
     1
102
RTVSPropertyOp13
 70
     1
102
RTVSPropertyOp14
 70
     1
102
RTVSPropertyOp15
 70
     1
102
RTVSPropertyOp16
 70
     1
102
RTVSPropertyOp17
 70
     1
102
RTVSPropertyOp18
 70
     1
102
RTVSPropertyOp19
 70
     1
102
RTVSPropertyOp20
 70
     1
102
RTVSPropertyOp21
 70
     1
102
RTVSPropertyOp22
 70
     1
102
RTVSPropertyOp23
 70
     1
102
RTVSPropertyOp24
 70
     1
102
RTVSPropertyOp25
 70
     1
102
RTVSPropertyOp26
 70
     1
102
RTVSPropertyOp27
 70
     1
102
RTVSPropertyOp28
 70
     1
102
RTVSPropertyOp29
 70
     1
102
RTVSPropertyOp30
 70
     1
102
RTVSPropertyOp31
 70
     1
102
RTVSPropertyOp32
 70
     1
102
RTVSPropertyOp33
 70
     1
102
RTVSPropertyOp34
 70
     1
102
RTVSPropertyOp35
 70
     1
102
RTVSPropertyOp36
 70
     1
102
RTVSPropertyOp37
 70
     1
102
RTVSPropertyOp38
 70
     1
102
RTVSPropertyOp39
 70
     1
102
RTVSPropertyOp40
 70
     1
102
RTVSPropertyOp41
 70
     1
102
RTVSPropertyOp42
 70
     1
102
RTVSPropertyOp43
 70
     1
102
RTVSPropertyOp44
 70
     1
102
RTVSPropertyOp45
 70
     1
102
RTVSPropertyOp46
 70
     1
102
RTVSPropertyOp47
 70
     1
102
RTVSPropertyOp48
 70
     1
102
RTVSPropertyOp49
 70
     1
102
RTVSPropertyOp50
 70
     1
102
RTVSPropertyOp51
 70
     0
102
RTVSPropertyOp52
 70
     0
102
RTVSPropertyOp53
 70
     1
102
RTVSPropertyOp54
 70
     1
102
RTVSPropertyOp55
 70
     1
102
RTVSPropertyOp56
 70
     1
102
RTVSPropertyOp57
 70
     1
102
RTVSPropertyOp58
 70
     1
102
RTVSPropertyOp59
 70
     1
102
RTVSPropertyOp60
 70
     1
102
RTVSPropertyOp61
 70
     1
102
RTVSPropertyOp62
 70
     1
  0
XRECORD
  5
4F8F
102
{ACAD_REACTORS
330
4F8E
102
}
330
4F8E
100
AcDbXrecord
280
     1
102
RTVSPost2010Prop28
280
     0
102
RTVSPost2010PropOp28
 70
     1
102
RTVSPost2010Prop29
280
     1
102
RTVSPost2010PropOp29
 70
     1
102
RTVSPost2010Prop30
280
     1
102
RTVSPost2010PropOp30
 70
     1
102
RTVSPost2010Prop31
280
     0
102
RTVSPost2010PropOp31
 70
     1
102
RTVSPost2010Prop32
280
     0
102
RTVSPost2010PropOp32
 70
     1
102
RTVSPost2010Prop33
280
     0
102
RTVSPost2010PropOp33
 70
     1
102
RTVSPost2010Prop34
280
     0
102
RTVSPost2010PropOp34
 70
     1
102
RTVSPost2010Prop35
280
     0
102
RTVSPost2010PropOp35
 70
     1
102
RTVSPost2010Prop36
280
     0
102
RTVSPost2010PropOp36
 70
     1
102
RTVSPost2010Prop37
 90
       50
102
RTVSPost2010PropOp37
 70
     1
102
RTVSPost2010Prop38
140
0.0
102
RTVSPost2010PropOp38
 70
     1
102
RTVSPost2010Prop39
140
1.0
102
RTVSPost2010PropOp39
 70
     1
102
RTVSPost2010Prop40
 90
        0
102
RTVSPost2010PropOp40
 70
     1
102
RTVSPost2010Prop41ColorIndex
 90
       18
102
RTVSPost2010Prop41ColorRGB
 90
        0
102
RTVSPost2010PropOp41
 70
     1
102
RTVSPost2010Prop42
 90
       50
102
RTVSPost2010PropOp42
 70
     1
102
RTVSPost2010Prop43
 90
        3
102
RTVSPost2010PropOp43
 70
     1
102
RTVSPost2010Prop44ColorIndex
 90
        5
102
RTVSPost2010Prop44ColorRGB
 90
      255
102
RTVSPost2010PropOp44
 70
     1
102
RTVSPost2010Prop45
280
     0
102
RTVSPost2010PropOp45
 70
     1
102
RTVSPost2010Prop46
 90
       50
102
RTVSPost2010PropOp46
 70
     1
102
RTVSPost2010Prop47
 90
       50
102
RTVSPost2010PropOp47
 70
     1
102
RTVSPost2010Prop48
 90
       50
102
RTVSPost2010PropOp48
 70
     1
102
RTVSPost2010Prop49
280
     0
102
RTVSPost2010PropOp49
 70
     1
102
RTVSPost2010Prop50
 90
       50
102
RTVSPost2010PropOp50
 70
     1
102
RTVSPost2010Prop51ColorIndex
 90
      256
102
RTVSPost2010Prop51ColorRGB
 90
-16777216
102
RTVSPost2010PropOp51
 70
     0
102
RTVSPost2010Prop52
140
1.0
102
RTVSPost2010PropOp52
 70
     0
102
RTVSPost2010Prop53
 90
        2
102
RTVSPost2010PropOp53
 70
     1
102
RTVSPost2010Prop54
  1
strokes_ogs.tif
102
RTVSPost2010PropOp54
 70
     1
102
RTVSPost2010Prop55
280
     0
102
RTVSPost2010PropOp55
 70
     1
102
RTVSPost2010Prop56
140
1.0
102
RTVSPost2010PropOp56
 70
     1
102
RTVSPost2010Prop57
140
1.0
102
RTVSPost2010PropOp57
 70
     1
102
RTVSPropertyOp0
 70
     1
102
RTVSPropertyOp1
 70
     1
102
RTVSPropertyOp2
 70
     1
102
RTVSPropertyOp3
 70
     1
102
RTVSPropertyOp4
 70
     1
102
RTVSPropertyOp5
 70
     1
102
RTVSPropertyOp6
 70
     1
102
RTVSPropertyOp7
 70
     1
102
RTVSPropertyOp8
 70
     1
102
RTVSPropertyOp9
 70
     1
102
RTVSPropertyOp10
 70
     1
102
RTVSPropertyOp11
 70
     1
102
RTVSPropertyOp12
 70
     1
102
RTVSPropertyOp13
 70
     1
102
RTVSPropertyOp14
 70
     1
102
RTVSPropertyOp15
 70
     1
102
RTVSPropertyOp16
 70
     1
102
RTVSPropertyOp17
 70
     1
102
RTVSPropertyOp18
 70
     1
102
RTVSPropertyOp19
 70
     1
102
RTVSPropertyOp20
 70
     1
102
RTVSPropertyOp21
 70
     1
102
RTVSPropertyOp22
 70
     1
102
RTVSPropertyOp23
 70
     1
102
RTVSPropertyOp24
 70
     1
102
RTVSPropertyOp25
 70
     1
102
RTVSPropertyOp26
 70
     1
102
RTVSPropertyOp27
 70
     1
102
RTVSPropertyOp28
 70
     1
102
RTVSPropertyOp29
 70
     1
102
RTVSPropertyOp30
 70
     1
102
RTVSPropertyOp31
 70
     1
102
RTVSPropertyOp32
 70
     1
102
RTVSPropertyOp33
 70
     1
102
RTVSPropertyOp34
 70
     1
102
RTVSPropertyOp35
 70
     1
102
RTVSPropertyOp36
 70
     1
102
RTVSPropertyOp37
 70
     1
102
RTVSPropertyOp38
 70
     1
102
RTVSPropertyOp39
 70
     1
102
RTVSPropertyOp40
 70
     1
102
RTVSPropertyOp41
 70
     1
102
RTVSPropertyOp42
 70
     1
102
RTVSPropertyOp43
 70
     1
102
RTVSPropertyOp44
 70
     1
102
RTVSPropertyOp45
 70
     1
102
RTVSPropertyOp46
 70
     1
102
RTVSPropertyOp47
 70
     1
102
RTVSPropertyOp48
 70
     1
102
RTVSPropertyOp49
 70
     1
102
RTVSPropertyOp50
 70
     1
102
RTVSPropertyOp51
 70
     0
102
RTVSPropertyOp52
 70
     0
102
RTVSPropertyOp53
 70
     1
102
RTVSPropertyOp54
 70
     1
102
RTVSPropertyOp55
 70
     1
102
RTVSPropertyOp56
 70
     1
102
RTVSPropertyOp57
 70
     1
102
RTVSPropertyOp58
 70
     1
102
RTVSPropertyOp59
 70
     1
102
RTVSPropertyOp60
 70
     1
102
RTVSPropertyOp61
 70
     1
102
RTVSPropertyOp62
 70
     1
  0
XRECORD
  5
4F97
102
{ACAD_REACTORS
330
4F96
102
}
330
4F96
100
AcDbXrecord
280
     1
102
RTVSPost2010Prop28
280
     0
102
RTVSPost2010PropOp28
 70
     1
102
RTVSPost2010Prop29
280
     1
102
RTVSPost2010PropOp29
 70
     1
102
RTVSPost2010Prop30
280
     1
102
RTVSPost2010PropOp30
 70
     1
102
RTVSPost2010Prop31
280
     0
102
RTVSPost2010PropOp31
 70
     1
102
RTVSPost2010Prop32
280
     0
102
RTVSPost2010PropOp32
 70
     1
102
RTVSPost2010Prop33
280
     0
102
RTVSPost2010PropOp33
 70
     1
102
RTVSPost2010Prop34
280
     0
102
RTVSPost2010PropOp34
 70
     1
102
RTVSPost2010Prop35
280
     0
102
RTVSPost2010PropOp35
 70
     1
102
RTVSPost2010Prop36
280
     0
102
RTVSPost2010PropOp36
 70
     1
102
RTVSPost2010Prop37
 90
       50
102
RTVSPost2010PropOp37
 70
     1
102
RTVSPost2010Prop38
140
0.0
102
RTVSPost2010PropOp38
 70
     1
102
RTVSPost2010Prop39
140
1.0
102
RTVSPost2010PropOp39
 70
     1
102
RTVSPost2010Prop40
 90
        0
102
RTVSPost2010PropOp40
 70
     1
102
RTVSPost2010Prop41ColorIndex
 90
       18
102
RTVSPost2010Prop41ColorRGB
 90
        0
102
RTVSPost2010PropOp41
 70
     1
102
RTVSPost2010Prop42
 90
       50
102
RTVSPost2010PropOp42
 70
     1
102
RTVSPost2010Prop43
 90
        3
102
RTVSPost2010PropOp43
 70
     1
102
RTVSPost2010Prop44ColorIndex
 90
        5
102
RTVSPost2010Prop44ColorRGB
 90
      255
102
RTVSPost2010PropOp44
 70
     1
102
RTVSPost2010Prop45
280
     0
102
RTVSPost2010PropOp45
 70
     1
102
RTVSPost2010Prop46
 90
       50
102
RTVSPost2010PropOp46
 70
     1
102
RTVSPost2010Prop47
 90
       50
102
RTVSPost2010PropOp47
 70
     1
102
RTVSPost2010Prop48
 90
       50
102
RTVSPost2010PropOp48
 70
     1
102
RTVSPost2010Prop49
280
     0
102
RTVSPost2010PropOp49
 70
     1
102
RTVSPost2010Prop50
 90
       50
102
RTVSPost2010PropOp50
 70
     1
102
RTVSPost2010Prop51ColorIndex
 90
      256
102
RTVSPost2010Prop51ColorRGB
 90
-16777216
102
RTVSPost2010PropOp51
 70
     0
102
RTVSPost2010Prop52
140
1.0
102
RTVSPost2010PropOp52
 70
     0
102
RTVSPost2010Prop53
 90
        2
102
RTVSPost2010PropOp53
 70
     1
102
RTVSPost2010Prop54
  1
strokes_ogs.tif
102
RTVSPost2010PropOp54
 70
     1
102
RTVSPost2010Prop55
280
     0
102
RTVSPost2010PropOp55
 70
     1
102
RTVSPost2010Prop56
140
1.0
102
RTVSPost2010PropOp56
 70
     1
102
RTVSPost2010Prop57
140
1.0
102
RTVSPost2010PropOp57
 70
     1
102
RTVSPropertyOp0
 70
     1
102
RTVSPropertyOp1
 70
     1
102
RTVSPropertyOp2
 70
     1
102
RTVSPropertyOp3
 70
     1
102
RTVSPropertyOp4
 70
     1
102
RTVSPropertyOp5
 70
     1
102
RTVSPropertyOp6
 70
     1
102
RTVSPropertyOp7
 70
     1
102
RTVSPropertyOp8
 70
     1
102
RTVSPropertyOp9
 70
     1
102
RTVSPropertyOp10
 70
     1
102
RTVSPropertyOp11
 70
     1
102
RTVSPropertyOp12
 70
     1
102
RTVSPropertyOp13
 70
     1
102
RTVSPropertyOp14
 70
     1
102
RTVSPropertyOp15
 70
     1
102
RTVSPropertyOp16
 70
     1
102
RTVSPropertyOp17
 70
     1
102
RTVSPropertyOp18
 70
     1
102
RTVSPropertyOp19
 70
     1
102
RTVSPropertyOp20
 70
     1
102
RTVSPropertyOp21
 70
     1
102
RTVSPropertyOp22
 70
     1
102
RTVSPropertyOp23
 70
     1
102
RTVSPropertyOp24
 70
     1
102
RTVSPropertyOp25
 70
     1
102
RTVSPropertyOp26
 70
     1
102
RTVSPropertyOp27
 70
     1
102
RTVSPropertyOp28
 70
     1
102
RTVSPropertyOp29
 70
     1
102
RTVSPropertyOp30
 70
     1
102
RTVSPropertyOp31
 70
     1
102
RTVSPropertyOp32
 70
     1
102
RTVSPropertyOp33
 70
     1
102
RTVSPropertyOp34
 70
     1
102
RTVSPropertyOp35
 70
     1
102
RTVSPropertyOp36
 70
     1
102
RTVSPropertyOp37
 70
     1
102
RTVSPropertyOp38
 70
     1
102
RTVSPropertyOp39
 70
     1
102
RTVSPropertyOp40
 70
     1
102
RTVSPropertyOp41
 70
     1
102
RTVSPropertyOp42
 70
     1
102
RTVSPropertyOp43
 70
     1
102
RTVSPropertyOp44
 70
     1
102
RTVSPropertyOp45
 70
     1
102
RTVSPropertyOp46
 70
     1
102
RTVSPropertyOp47
 70
     1
102
RTVSPropertyOp48
 70
     1
102
RTVSPropertyOp49
 70
     1
102
RTVSPropertyOp50
 70
     1
102
RTVSPropertyOp51
 70
     0
102
RTVSPropertyOp52
 70
     0
102
RTVSPropertyOp53
 70
     1
102
RTVSPropertyOp54
 70
     1
102
RTVSPropertyOp55
 70
     1
102
RTVSPropertyOp56
 70
     1
102
RTVSPropertyOp57
 70
     1
102
RTVSPropertyOp58
 70
     1
102
RTVSPropertyOp59
 70
     1
102
RTVSPropertyOp60
 70
     1
102
RTVSPropertyOp61
 70
     1
102
RTVSPropertyOp62
 70
     1
  0
XRECORD
  5
4F89
102
{ACAD_REACTORS
330
4F88
102
}
330
4F88
100
AcDbXrecord
280
     1
102
RTVSPost2010Prop28
280
     0
102
RTVSPost2010PropOp28
 70
     1
102
RTVSPost2010Prop29
280
     1
102
RTVSPost2010PropOp29
 70
     1
102
RTVSPost2010Prop30
280
     1
102
RTVSPost2010PropOp30
 70
     1
102
RTVSPost2010Prop31
280
     0
102
RTVSPost2010PropOp31
 70
     1
102
RTVSPost2010Prop32
280
     0
102
RTVSPost2010PropOp32
 70
     1
102
RTVSPost2010Prop33
280
     0
102
RTVSPost2010PropOp33
 70
     1
102
RTVSPost2010Prop34
280
     0
102
RTVSPost2010PropOp34
 70
     1
102
RTVSPost2010Prop35
280
     0
102
RTVSPost2010PropOp35
 70
     1
102
RTVSPost2010Prop36
280
     0
102
RTVSPost2010PropOp36
 70
     1
102
RTVSPost2010Prop37
 90
       50
102
RTVSPost2010PropOp37
 70
     1
102
RTVSPost2010Prop38
140
0.0
102
RTVSPost2010PropOp38
 70
     1
102
RTVSPost2010Prop39
140
1.0
102
RTVSPost2010PropOp39
 70
     1
102
RTVSPost2010Prop40
 90
        0
102
RTVSPost2010PropOp40
 70
     1
102
RTVSPost2010Prop41ColorIndex
 90
       18
102
RTVSPost2010Prop41ColorRGB
 90
        0
102
RTVSPost2010PropOp41
 70
     1
102
RTVSPost2010Prop42
 90
       50
102
RTVSPost2010PropOp42
 70
     1
102
RTVSPost2010Prop43
 90
        3
102
RTVSPost2010PropOp43
 70
     1
102
RTVSPost2010Prop44ColorIndex
 90
        5
102
RTVSPost2010Prop44ColorRGB
 90
      255
102
RTVSPost2010PropOp44
 70
     1
102
RTVSPost2010Prop45
280
     0
102
RTVSPost2010PropOp45
 70
     1
102
RTVSPost2010Prop46
 90
       50
102
RTVSPost2010PropOp46
 70
     1
102
RTVSPost2010Prop47
 90
       50
102
RTVSPost2010PropOp47
 70
     1
102
RTVSPost2010Prop48
 90
       50
102
RTVSPost2010PropOp48
 70
     1
102
RTVSPost2010Prop49
280
     0
102
RTVSPost2010PropOp49
 70
     1
102
RTVSPost2010Prop50
 90
       50
102
RTVSPost2010PropOp50
 70
     1
102
RTVSPost2010Prop51ColorIndex
 90
      256
102
RTVSPost2010Prop51ColorRGB
 90
-16777216
102
RTVSPost2010PropOp51
 70
     0
102
RTVSPost2010Prop52
140
1.0
102
RTVSPost2010PropOp52
 70
     0
102
RTVSPost2010Prop53
 90
        2
102
RTVSPost2010PropOp53
 70
     1
102
RTVSPost2010Prop54
  1
strokes_ogs.tif
102
RTVSPost2010PropOp54
 70
     1
102
RTVSPost2010Prop55
280
     0
102
RTVSPost2010PropOp55
 70
     1
102
RTVSPost2010Prop56
140
1.0
102
RTVSPost2010PropOp56
 70
     1
102
RTVSPost2010Prop57
140
1.0
102
RTVSPost2010PropOp57
 70
     1
102
RTVSPropertyOp0
 70
     1
102
RTVSPropertyOp1
 70
     1
102
RTVSPropertyOp2
 70
     1
102
RTVSPropertyOp3
 70
     1
102
RTVSPropertyOp4
 70
     1
102
RTVSPropertyOp5
 70
     1
102
RTVSPropertyOp6
 70
     1
102
RTVSPropertyOp7
 70
     1
102
RTVSPropertyOp8
 70
     1
102
RTVSPropertyOp9
 70
     1
102
RTVSPropertyOp10
 70
     1
102
RTVSPropertyOp11
 70
     1
102
RTVSPropertyOp12
 70
     1
102
RTVSPropertyOp13
 70
     1
102
RTVSPropertyOp14
 70
     1
102
RTVSPropertyOp15
 70
     1
102
RTVSPropertyOp16
 70
     1
102
RTVSPropertyOp17
 70
     1
102
RTVSPropertyOp18
 70
     1
102
RTVSPropertyOp19
 70
     1
102
RTVSPropertyOp20
 70
     1
102
RTVSPropertyOp21
 70
     1
102
RTVSPropertyOp22
 70
     1
102
RTVSPropertyOp23
 70
     1
102
RTVSPropertyOp24
 70
     1
102
RTVSPropertyOp25
 70
     1
102
RTVSPropertyOp26
 70
     1
102
RTVSPropertyOp27
 70
     1
102
RTVSPropertyOp28
 70
     1
102
RTVSPropertyOp29
 70
     1
102
RTVSPropertyOp30
 70
     1
102
RTVSPropertyOp31
 70
     1
102
RTVSPropertyOp32
 70
     1
102
RTVSPropertyOp33
 70
     1
102
RTVSPropertyOp34
 70
     1
102
RTVSPropertyOp35
 70
     1
102
RTVSPropertyOp36
 70
     1
102
RTVSPropertyOp37
 70
     1
102
RTVSPropertyOp38
 70
     1
102
RTVSPropertyOp39
 70
     1
102
RTVSPropertyOp40
 70
     1
102
RTVSPropertyOp41
 70
     1
102
RTVSPropertyOp42
 70
     1
102
RTVSPropertyOp43
 70
     1
102
RTVSPropertyOp44
 70
     1
102
RTVSPropertyOp45
 70
     1
102
RTVSPropertyOp46
 70
     1
102
RTVSPropertyOp47
 70
     1
102
RTVSPropertyOp48
 70
     1
102
RTVSPropertyOp49
 70
     1
102
RTVSPropertyOp50
 70
     1
102
RTVSPropertyOp51
 70
     0
102
RTVSPropertyOp52
 70
     0
102
RTVSPropertyOp53
 70
     1
102
RTVSPropertyOp54
 70
     1
102
RTVSPropertyOp55
 70
     1
102
RTVSPropertyOp56
 70
     1
102
RTVSPropertyOp57
 70
     1
102
RTVSPropertyOp58
 70
     1
102
RTVSPropertyOp59
 70
     1
102
RTVSPropertyOp60
 70
     1
102
RTVSPropertyOp61
 70
     1
102
RTVSPropertyOp62
 70
     1
  0
XRECORD
  5
4F8D
102
{ACAD_REACTORS
330
4F8C
102
}
330
4F8C
100
AcDbXrecord
280
     1
102
RTVSPost2010Prop28
280
     0
102
RTVSPost2010PropOp28
 70
     1
102
RTVSPost2010Prop29
280
     1
102
RTVSPost2010PropOp29
 70
     1
102
RTVSPost2010Prop30
280
     1
102
RTVSPost2010PropOp30
 70
     1
102
RTVSPost2010Prop31
280
     0
102
RTVSPost2010PropOp31
 70
     1
102
RTVSPost2010Prop32
280
     0
102
RTVSPost2010PropOp32
 70
     1
102
RTVSPost2010Prop33
280
     0
102
RTVSPost2010PropOp33
 70
     1
102
RTVSPost2010Prop34
280
     0
102
RTVSPost2010PropOp34
 70
     1
102
RTVSPost2010Prop35
280
     0
102
RTVSPost2010PropOp35
 70
     1
102
RTVSPost2010Prop36
280
     0
102
RTVSPost2010PropOp36
 70
     1
102
RTVSPost2010Prop37
 90
       50
102
RTVSPost2010PropOp37
 70
     1
102
RTVSPost2010Prop38
140
0.0
102
RTVSPost2010PropOp38
 70
     1
102
RTVSPost2010Prop39
140
1.0
102
RTVSPost2010PropOp39
 70
     1
102
RTVSPost2010Prop40
 90
        0
102
RTVSPost2010PropOp40
 70
     1
102
RTVSPost2010Prop41ColorIndex
 90
       18
102
RTVSPost2010Prop41ColorRGB
 90
        0
102
RTVSPost2010PropOp41
 70
     1
102
RTVSPost2010Prop42
 90
       50
102
RTVSPost2010PropOp42
 70
     1
102
RTVSPost2010Prop43
 90
        3
102
RTVSPost2010PropOp43
 70
     1
102
RTVSPost2010Prop44ColorIndex
 90
        5
102
RTVSPost2010Prop44ColorRGB
 90
      255
102
RTVSPost2010PropOp44
 70
     1
102
RTVSPost2010Prop45
280
     0
102
RTVSPost2010PropOp45
 70
     1
102
RTVSPost2010Prop46
 90
       50
102
RTVSPost2010PropOp46
 70
     1
102
RTVSPost2010Prop47
 90
       50
102
RTVSPost2010PropOp47
 70
     1
102
RTVSPost2010Prop48
 90
       50
102
RTVSPost2010PropOp48
 70
     1
102
RTVSPost2010Prop49
280
     0
102
RTVSPost2010PropOp49
 70
     1
102
RTVSPost2010Prop50
 90
       50
102
RTVSPost2010PropOp50
 70
     1
102
RTVSPost2010Prop51ColorIndex
 90
      256
102
RTVSPost2010Prop51ColorRGB
 90
-16777216
102
RTVSPost2010PropOp51
 70
     0
102
RTVSPost2010Prop52
140
1.0
102
RTVSPost2010PropOp52
 70
     0
102
RTVSPost2010Prop53
 90
        2
102
RTVSPost2010PropOp53
 70
     1
102
RTVSPost2010Prop54
  1
strokes_ogs.tif
102
RTVSPost2010PropOp54
 70
     1
102
RTVSPost2010Prop55
280
     0
102
RTVSPost2010PropOp55
 70
     1
102
RTVSPost2010Prop56
140
1.0
102
RTVSPost2010PropOp56
 70
     1
102
RTVSPost2010Prop57
140
1.0
102
RTVSPost2010PropOp57
 70
     1
102
RTVSPropertyOp0
 70
     1
102
RTVSPropertyOp1
 70
     1
102
RTVSPropertyOp2
 70
     1
102
RTVSPropertyOp3
 70
     1
102
RTVSPropertyOp4
 70
     1
102
RTVSPropertyOp5
 70
     1
102
RTVSPropertyOp6
 70
     1
102
RTVSPropertyOp7
 70
     1
102
RTVSPropertyOp8
 70
     1
102
RTVSPropertyOp9
 70
     1
102
RTVSPropertyOp10
 70
     1
102
RTVSPropertyOp11
 70
     1
102
RTVSPropertyOp12
 70
     1
102
RTVSPropertyOp13
 70
     1
102
RTVSPropertyOp14
 70
     1
102
RTVSPropertyOp15
 70
     1
102
RTVSPropertyOp16
 70
     1
102
RTVSPropertyOp17
 70
     1
102
RTVSPropertyOp18
 70
     1
102
RTVSPropertyOp19
 70
     1
102
RTVSPropertyOp20
 70
     1
102
RTVSPropertyOp21
 70
     1
102
RTVSPropertyOp22
 70
     1
102
RTVSPropertyOp23
 70
     1
102
RTVSPropertyOp24
 70
     1
102
RTVSPropertyOp25
 70
     1
102
RTVSPropertyOp26
 70
     1
102
RTVSPropertyOp27
 70
     1
102
RTVSPropertyOp28
 70
     1
102
RTVSPropertyOp29
 70
     1
102
RTVSPropertyOp30
 70
     1
102
RTVSPropertyOp31
 70
     1
102
RTVSPropertyOp32
 70
     1
102
RTVSPropertyOp33
 70
     1
102
RTVSPropertyOp34
 70
     1
102
RTVSPropertyOp35
 70
     1
102
RTVSPropertyOp36
 70
     1
102
RTVSPropertyOp37
 70
     1
102
RTVSPropertyOp38
 70
     1
102
RTVSPropertyOp39
 70
     1
102
RTVSPropertyOp40
 70
     1
102
RTVSPropertyOp41
 70
     1
102
RTVSPropertyOp42
 70
     1
102
RTVSPropertyOp43
 70
     1
102
RTVSPropertyOp44
 70
     1
102
RTVSPropertyOp45
 70
     1
102
RTVSPropertyOp46
 70
     1
102
RTVSPropertyOp47
 70
     1
102
RTVSPropertyOp48
 70
     1
102
RTVSPropertyOp49
 70
     1
102
RTVSPropertyOp50
 70
     1
102
RTVSPropertyOp51
 70
     0
102
RTVSPropertyOp52
 70
     0
102
RTVSPropertyOp53
 70
     1
102
RTVSPropertyOp54
 70
     1
102
RTVSPropertyOp55
 70
     1
102
RTVSPropertyOp56
 70
     1
102
RTVSPropertyOp57
 70
     1
102
RTVSPropertyOp58
 70
     1
102
RTVSPropertyOp59
 70
     1
102
RTVSPropertyOp60
 70
     1
102
RTVSPropertyOp61
 70
     1
102
RTVSPropertyOp62
 70
     1
  0
XRECORD
  5
4FA7
102
{ACAD_REACTORS
330
4FA6
102
}
330
4FA6
100
AcDbXrecord
280
     1
102
RTVSPost2010Prop28
280
     0
102
RTVSPost2010PropOp28
 70
     0
102
RTVSPost2010Prop29
280
     1
102
RTVSPost2010PropOp29
 70
     0
102
RTVSPost2010Prop30
280
     1
102
RTVSPost2010PropOp30
 70
     0
102
RTVSPost2010Prop31
280
     0
102
RTVSPost2010PropOp31
 70
     0
102
RTVSPost2010Prop32
280
     0
102
RTVSPost2010PropOp32
 70
     0
102
RTVSPost2010Prop33
280
     0
102
RTVSPost2010PropOp33
 70
     0
102
RTVSPost2010Prop34
280
     0
102
RTVSPost2010PropOp34
 70
     0
102
RTVSPost2010Prop35
280
     0
102
RTVSPost2010PropOp35
 70
     0
102
RTVSPost2010Prop36
280
     0
102
RTVSPost2010PropOp36
 70
     0
102
RTVSPost2010Prop37
 90
       50
102
RTVSPost2010PropOp37
 70
     0
102
RTVSPost2010Prop38
140
0.0
102
RTVSPost2010PropOp38
 70
     0
102
RTVSPost2010Prop39
140
1.0
102
RTVSPost2010PropOp39
 70
     0
102
RTVSPost2010Prop40
 90
        0
102
RTVSPost2010PropOp40
 70
     0
102
RTVSPost2010Prop41ColorIndex
 90
       18
102
RTVSPost2010Prop41ColorRGB
 90
        0
102
RTVSPost2010PropOp41
 70
     0
102
RTVSPost2010Prop42
 90
       50
102
RTVSPost2010PropOp42
 70
     0
102
RTVSPost2010Prop43
 90
        3
102
RTVSPost2010PropOp43
 70
     0
102
RTVSPost2010Prop44ColorIndex
 90
        5
102
RTVSPost2010Prop44ColorRGB
 90
      255
102
RTVSPost2010PropOp44
 70
     0
102
RTVSPost2010Prop45
280
     0
102
RTVSPost2010PropOp45
 70
     0
102
RTVSPost2010Prop46
 90
       50
102
RTVSPost2010PropOp46
 70
     0
102
RTVSPost2010Prop47
 90
       50
102
RTVSPost2010PropOp47
 70
     0
102
RTVSPost2010Prop48
 90
       50
102
RTVSPost2010PropOp48
 70
     0
102
RTVSPost2010Prop49
280
     0
102
RTVSPost2010PropOp49
 70
     0
102
RTVSPost2010Prop50
 90
       50
102
RTVSPost2010PropOp50
 70
     0
102
RTVSPost2010Prop51ColorIndex
 90
      256
102
RTVSPost2010Prop51ColorRGB
 90
-16777216
102
RTVSPost2010PropOp51
 70
     0
102
RTVSPost2010Prop52
140
1.0
102
RTVSPost2010PropOp52
 70
     0
102
RTVSPost2010Prop53
 90
        2
102
RTVSPost2010PropOp53
 70
     0
102
RTVSPost2010Prop54
  1
strokes_ogs.tif
102
RTVSPost2010PropOp54
 70
     0
102
RTVSPost2010Prop55
280
     0
102
RTVSPost2010PropOp55
 70
     0
102
RTVSPost2010Prop56
140
1.0
102
RTVSPost2010PropOp56
 70
     0
102
RTVSPost2010Prop57
140
1.0
102
RTVSPost2010PropOp57
 70
     0
102
RTVSPropertyOp0
 70
     0
102
RTVSPropertyOp1
 70
     0
102
RTVSPropertyOp2
 70
     0
102
RTVSPropertyOp3
 70
     0
102
RTVSPropertyOp4
 70
     0
102
RTVSPropertyOp5
 70
     0
102
RTVSPropertyOp6
 70
     0
102
RTVSPropertyOp7
 70
     0
102
RTVSPropertyOp8
 70
     0
102
RTVSPropertyOp9
 70
     0
102
RTVSPropertyOp10
 70
     0
102
RTVSPropertyOp11
 70
     0
102
RTVSPropertyOp12
 70
     0
102
RTVSPropertyOp13
 70
     0
102
RTVSPropertyOp14
 70
     2
102
RTVSPropertyOp15
 70
     0
102
RTVSPropertyOp16
 70
     0
102
RTVSPropertyOp17
 70
     0
102
RTVSPropertyOp18
 70
     0
102
RTVSPropertyOp19
 70
     0
102
RTVSPropertyOp20
 70
     0
102
RTVSPropertyOp21
 70
     0
102
RTVSPropertyOp22
 70
     0
102
RTVSPropertyOp23
 70
     0
102
RTVSPropertyOp24
 70
     0
102
RTVSPropertyOp25
 70
     0
102
RTVSPropertyOp26
 70
     0
102
RTVSPropertyOp27
 70
     0
102
RTVSPropertyOp28
 70
     0
102
RTVSPropertyOp29
 70
     0
102
RTVSPropertyOp30
 70
     0
102
RTVSPropertyOp31
 70
     0
102
RTVSPropertyOp32
 70
     0
102
RTVSPropertyOp33
 70
     0
102
RTVSPropertyOp34
 70
     0
102
RTVSPropertyOp35
 70
     0
102
RTVSPropertyOp36
 70
     0
102
RTVSPropertyOp37
 70
     0
102
RTVSPropertyOp38
 70
     0
102
RTVSPropertyOp39
 70
     0
102
RTVSPropertyOp40
 70
     0
102
RTVSPropertyOp41
 70
     0
102
RTVSPropertyOp42
 70
     0
102
RTVSPropertyOp43
 70
     0
102
RTVSPropertyOp44
 70
     0
102
RTVSPropertyOp45
 70
     0
102
RTVSPropertyOp46
 70
     0
102
RTVSPropertyOp47
 70
     0
102
RTVSPropertyOp48
 70
     0
102
RTVSPropertyOp49
 70
     0
102
RTVSPropertyOp50
 70
     0
102
RTVSPropertyOp51
 70
     0
102
RTVSPropertyOp52
 70
     0
102
RTVSPropertyOp53
 70
     0
102
RTVSPropertyOp54
 70
     0
102
RTVSPropertyOp55
 70
     0
102
RTVSPropertyOp56
 70
     0
102
RTVSPropertyOp57
 70
     0
102
RTVSPropertyOp58
 70
     1
102
RTVSPropertyOp59
 70
     1
102
RTVSPropertyOp60
 70
     1
102
RTVSPropertyOp61
 70
     1
102
RTVSPropertyOp62
 70
     1
  0
XRECORD
  5
4F95
102
{ACAD_REACTORS
330
4F94
102
}
330
4F94
100
AcDbXrecord
280
     1
102
RTVSPost2010Prop28
280
     0
102
RTVSPost2010PropOp28
 70
     1
102
RTVSPost2010Prop29
280
     1
102
RTVSPost2010PropOp29
 70
     1
102
RTVSPost2010Prop30
280
     1
102
RTVSPost2010PropOp30
 70
     1
102
RTVSPost2010Prop31
280
     0
102
RTVSPost2010PropOp31
 70
     1
102
RTVSPost2010Prop32
280
     0
102
RTVSPost2010PropOp32
 70
     1
102
RTVSPost2010Prop33
280
     0
102
RTVSPost2010PropOp33
 70
     1
102
RTVSPost2010Prop34
280
     0
102
RTVSPost2010PropOp34
 70
     1
102
RTVSPost2010Prop35
280
     0
102
RTVSPost2010PropOp35
 70
     1
102
RTVSPost2010Prop36
280
     0
102
RTVSPost2010PropOp36
 70
     1
102
RTVSPost2010Prop37
 90
       50
102
RTVSPost2010PropOp37
 70
     1
102
RTVSPost2010Prop38
140
0.0
102
RTVSPost2010PropOp38
 70
     1
102
RTVSPost2010Prop39
140
1.0
102
RTVSPost2010PropOp39
 70
     1
102
RTVSPost2010Prop40
 90
        0
102
RTVSPost2010PropOp40
 70
     1
102
RTVSPost2010Prop41ColorIndex
 90
       18
102
RTVSPost2010Prop41ColorRGB
 90
        0
102
RTVSPost2010PropOp41
 70
     1
102
RTVSPost2010Prop42
 90
       50
102
RTVSPost2010PropOp42
 70
     1
102
RTVSPost2010Prop43
 90
        3
102
RTVSPost2010PropOp43
 70
     1
102
RTVSPost2010Prop44ColorIndex
 90
        5
102
RTVSPost2010Prop44ColorRGB
 90
      255
102
RTVSPost2010PropOp44
 70
     1
102
RTVSPost2010Prop45
280
     0
102
RTVSPost2010PropOp45
 70
     1
102
RTVSPost2010Prop46
 90
       50
102
RTVSPost2010PropOp46
 70
     1
102
RTVSPost2010Prop47
 90
       50
102
RTVSPost2010PropOp47
 70
     1
102
RTVSPost2010Prop48
 90
       50
102
RTVSPost2010PropOp48
 70
     1
102
RTVSPost2010Prop49
280
     0
102
RTVSPost2010PropOp49
 70
     1
102
RTVSPost2010Prop50
 90
       50
102
RTVSPost2010PropOp50
 70
     1
102
RTVSPost2010Prop51ColorIndex
 90
      256
102
RTVSPost2010Prop51ColorRGB
 90
-16777216
102
RTVSPost2010PropOp51
 70
     0
102
RTVSPost2010Prop52
140
1.0
102
RTVSPost2010PropOp52
 70
     0
102
RTVSPost2010Prop53
 90
        2
102
RTVSPost2010PropOp53
 70
     1
102
RTVSPost2010Prop54
  1
strokes_ogs.tif
102
RTVSPost2010PropOp54
 70
     1
102
RTVSPost2010Prop55
280
     0
102
RTVSPost2010PropOp55
 70
     1
102
RTVSPost2010Prop56
140
1.0
102
RTVSPost2010PropOp56
 70
     1
102
RTVSPost2010Prop57
140
1.0
102
RTVSPost2010PropOp57
 70
     1
102
RTVSPropertyOp0
 70
     1
102
RTVSPropertyOp1
 70
     1
102
RTVSPropertyOp2
 70
     1
102
RTVSPropertyOp3
 70
     1
102
RTVSPropertyOp4
 70
     1
102
RTVSPropertyOp5
 70
     1
102
RTVSPropertyOp6
 70
     1
102
RTVSPropertyOp7
 70
     1
102
RTVSPropertyOp8
 70
     1
102
RTVSPropertyOp9
 70
     1
102
RTVSPropertyOp10
 70
     1
102
RTVSPropertyOp11
 70
     1
102
RTVSPropertyOp12
 70
     1
102
RTVSPropertyOp13
 70
     1
102
RTVSPropertyOp14
 70
     1
102
RTVSPropertyOp15
 70
     1
102
RTVSPropertyOp16
 70
     1
102
RTVSPropertyOp17
 70
     1
102
RTVSPropertyOp18
 70
     1
102
RTVSPropertyOp19
 70
     1
102
RTVSPropertyOp20
 70
     1
102
RTVSPropertyOp21
 70
     1
102
RTVSPropertyOp22
 70
     1
102
RTVSPropertyOp23
 70
     1
102
RTVSPropertyOp24
 70
     1
102
RTVSPropertyOp25
 70
     1
102
RTVSPropertyOp26
 70
     1
102
RTVSPropertyOp27
 70
     1
102
RTVSPropertyOp28
 70
     1
102
RTVSPropertyOp29
 70
     1
102
RTVSPropertyOp30
 70
     1
102
RTVSPropertyOp31
 70
     1
102
RTVSPropertyOp32
 70
     1
102
RTVSPropertyOp33
 70
     1
102
RTVSPropertyOp34
 70
     1
102
RTVSPropertyOp35
 70
     1
102
RTVSPropertyOp36
 70
     1
102
RTVSPropertyOp37
 70
     1
102
RTVSPropertyOp38
 70
     1
102
RTVSPropertyOp39
 70
     1
102
RTVSPropertyOp40
 70
     1
102
RTVSPropertyOp41
 70
     1
102
RTVSPropertyOp42
 70
     1
102
RTVSPropertyOp43
 70
     1
102
RTVSPropertyOp44
 70
     1
102
RTVSPropertyOp45
 70
     1
102
RTVSPropertyOp46
 70
     1
102
RTVSPropertyOp47
 70
     1
102
RTVSPropertyOp48
 70
     1
102
RTVSPropertyOp49
 70
     1
102
RTVSPropertyOp50
 70
     1
102
RTVSPropertyOp51
 70
     0
102
RTVSPropertyOp52
 70
     0
102
RTVSPropertyOp53
 70
     1
102
RTVSPropertyOp54
 70
     1
102
RTVSPropertyOp55
 70
     1
102
RTVSPropertyOp56
 70
     1
102
RTVSPropertyOp57
 70
     1
102
RTVSPropertyOp58
 70
     1
102
RTVSPropertyOp59
 70
     1
102
RTVSPropertyOp60
 70
     1
102
RTVSPropertyOp61
 70
     1
102
RTVSPropertyOp62
 70
     1
  0
XRECORD
  5
4F79
102
{ACAD_REACTORS
330
4F78
102
}
330
4F78
100
AcDbXrecord
280
     1
102
RTVSPost2010Prop28
280
     0
102
RTVSPost2010PropOp28
 70
     1
102
RTVSPost2010Prop29
280
     1
102
RTVSPost2010PropOp29
 70
     1
102
RTVSPost2010Prop30
280
     1
102
RTVSPost2010PropOp30
 70
     1
102
RTVSPost2010Prop31
280
     0
102
RTVSPost2010PropOp31
 70
     1
102
RTVSPost2010Prop32
280
     0
102
RTVSPost2010PropOp32
 70
     1
102
RTVSPost2010Prop33
280
     0
102
RTVSPost2010PropOp33
 70
     1
102
RTVSPost2010Prop34
280
     0
102
RTVSPost2010PropOp34
 70
     1
102
RTVSPost2010Prop35
280
     0
102
RTVSPost2010PropOp35
 70
     1
102
RTVSPost2010Prop36
280
     0
102
RTVSPost2010PropOp36
 70
     1
102
RTVSPost2010Prop37
 90
       50
102
RTVSPost2010PropOp37
 70
     1
102
RTVSPost2010Prop38
140
0.0
102
RTVSPost2010PropOp38
 70
     1
102
RTVSPost2010Prop39
140
1.0
102
RTVSPost2010PropOp39
 70
     1
102
RTVSPost2010Prop40
 90
        0
102
RTVSPost2010PropOp40
 70
     1
102
RTVSPost2010Prop41ColorIndex
 90
       18
102
RTVSPost2010Prop41ColorRGB
 90
        0
102
RTVSPost2010PropOp41
 70
     1
102
RTVSPost2010Prop42
 90
       50
102
RTVSPost2010PropOp42
 70
     1
102
RTVSPost2010Prop43
 90
        3
102
RTVSPost2010PropOp43
 70
     1
102
RTVSPost2010Prop44ColorIndex
 90
        5
102
RTVSPost2010Prop44ColorRGB
 90
      255
102
RTVSPost2010PropOp44
 70
     1
102
RTVSPost2010Prop45
280
     0
102
RTVSPost2010PropOp45
 70
     1
102
RTVSPost2010Prop46
 90
       50
102
RTVSPost2010PropOp46
 70
     1
102
RTVSPost2010Prop47
 90
       50
102
RTVSPost2010PropOp47
 70
     1
102
RTVSPost2010Prop48
 90
       50
102
RTVSPost2010PropOp48
 70
     1
102
RTVSPost2010Prop49
280
     0
102
RTVSPost2010PropOp49
 70
     1
102
RTVSPost2010Prop50
 90
       50
102
RTVSPost2010PropOp50
 70
     1
102
RTVSPost2010Prop51ColorIndex
 90
      256
102
RTVSPost2010Prop51ColorRGB
 90
-16777216
102
RTVSPost2010PropOp51
 70
     0
102
RTVSPost2010Prop52
140
1.0
102
RTVSPost2010PropOp52
 70
     0
102
RTVSPost2010Prop53
 90
        2
102
RTVSPost2010PropOp53
 70
     1
102
RTVSPost2010Prop54
  1
strokes_ogs.tif
102
RTVSPost2010PropOp54
 70
     1
102
RTVSPost2010Prop55
280
     0
102
RTVSPost2010PropOp55
 70
     1
102
RTVSPost2010Prop56
140
1.0
102
RTVSPost2010PropOp56
 70
     1
102
RTVSPost2010Prop57
140
1.0
102
RTVSPost2010PropOp57
 70
     1
102
RTVSPropertyOp0
 70
     1
102
RTVSPropertyOp1
 70
     1
102
RTVSPropertyOp2
 70
     1
102
RTVSPropertyOp3
 70
     1
102
RTVSPropertyOp4
 70
     1
102
RTVSPropertyOp5
 70
     1
102
RTVSPropertyOp6
 70
     1
102
RTVSPropertyOp7
 70
     1
102
RTVSPropertyOp8
 70
     1
102
RTVSPropertyOp9
 70
     1
102
RTVSPropertyOp10
 70
     1
102
RTVSPropertyOp11
 70
     1
102
RTVSPropertyOp12
 70
     1
102
RTVSPropertyOp13
 70
     1
102
RTVSPropertyOp14
 70
     1
102
RTVSPropertyOp15
 70
     1
102
RTVSPropertyOp16
 70
     1
102
RTVSPropertyOp17
 70
     1
102
RTVSPropertyOp18
 70
     1
102
RTVSPropertyOp19
 70
     1
102
RTVSPropertyOp20
 70
     1
102
RTVSPropertyOp21
 70
     1
102
RTVSPropertyOp22
 70
     1
102
RTVSPropertyOp23
 70
     1
102
RTVSPropertyOp24
 70
     1
102
RTVSPropertyOp25
 70
     1
102
RTVSPropertyOp26
 70
     1
102
RTVSPropertyOp27
 70
     1
102
RTVSPropertyOp28
 70
     1
102
RTVSPropertyOp29
 70
     1
102
RTVSPropertyOp30
 70
     1
102
RTVSPropertyOp31
 70
     1
102
RTVSPropertyOp32
 70
     1
102
RTVSPropertyOp33
 70
     1
102
RTVSPropertyOp34
 70
     1
102
RTVSPropertyOp35
 70
     1
102
RTVSPropertyOp36
 70
     1
102
RTVSPropertyOp37
 70
     1
102
RTVSPropertyOp38
 70
     1
102
RTVSPropertyOp39
 70
     1
102
RTVSPropertyOp40
 70
     1
102
RTVSPropertyOp41
 70
     1
102
RTVSPropertyOp42
 70
     1
102
RTVSPropertyOp43
 70
     1
102
RTVSPropertyOp44
 70
     1
102
RTVSPropertyOp45
 70
     1
102
RTVSPropertyOp46
 70
     1
102
RTVSPropertyOp47
 70
     1
102
RTVSPropertyOp48
 70
     1
102
RTVSPropertyOp49
 70
     1
102
RTVSPropertyOp50
 70
     1
102
RTVSPropertyOp51
 70
     0
102
RTVSPropertyOp52
 70
     0
102
RTVSPropertyOp53
 70
     1
102
RTVSPropertyOp54
 70
     1
102
RTVSPropertyOp55
 70
     1
102
RTVSPropertyOp56
 70
     1
102
RTVSPropertyOp57
 70
     1
102
RTVSPropertyOp58
 70
     1
102
RTVSPropertyOp59
 70
     1
102
RTVSPropertyOp60
 70
     1
102
RTVSPropertyOp61
 70
     1
102
RTVSPropertyOp62
 70
     1
  0
XRECORD
  5
4F7B
102
{ACAD_REACTORS
330
4F7A
102
}
330
4F7A
100
AcDbXrecord
280
     1
102
RTVSPost2010Prop28
280
     0
102
RTVSPost2010PropOp28
 70
     1
102
RTVSPost2010Prop29
280
     1
102
RTVSPost2010PropOp29
 70
     1
102
RTVSPost2010Prop30
280
     1
102
RTVSPost2010PropOp30
 70
     1
102
RTVSPost2010Prop31
280
     0
102
RTVSPost2010PropOp31
 70
     1
102
RTVSPost2010Prop32
280
     0
102
RTVSPost2010PropOp32
 70
     1
102
RTVSPost2010Prop33
280
     0
102
RTVSPost2010PropOp33
 70
     1
102
RTVSPost2010Prop34
280
     0
102
RTVSPost2010PropOp34
 70
     1
102
RTVSPost2010Prop35
280
     0
102
RTVSPost2010PropOp35
 70
     1
102
RTVSPost2010Prop36
280
     0
102
RTVSPost2010PropOp36
 70
     1
102
RTVSPost2010Prop37
 90
       50
102
RTVSPost2010PropOp37
 70
     1
102
RTVSPost2010Prop38
140
0.0
102
RTVSPost2010PropOp38
 70
     1
102
RTVSPost2010Prop39
140
1.0
102
RTVSPost2010PropOp39
 70
     1
102
RTVSPost2010Prop40
 90
        0
102
RTVSPost2010PropOp40
 70
     1
102
RTVSPost2010Prop41ColorIndex
 90
       18
102
RTVSPost2010Prop41ColorRGB
 90
        0
102
RTVSPost2010PropOp41
 70
     1
102
RTVSPost2010Prop42
 90
       50
102
RTVSPost2010PropOp42
 70
     1
102
RTVSPost2010Prop43
 90
        3
102
RTVSPost2010PropOp43
 70
     1
102
RTVSPost2010Prop44ColorIndex
 90
        5
102
RTVSPost2010Prop44ColorRGB
 90
      255
102
RTVSPost2010PropOp44
 70
     1
102
RTVSPost2010Prop45
280
     0
102
RTVSPost2010PropOp45
 70
     1
102
RTVSPost2010Prop46
 90
       50
102
RTVSPost2010PropOp46
 70
     1
102
RTVSPost2010Prop47
 90
       50
102
RTVSPost2010PropOp47
 70
     1
102
RTVSPost2010Prop48
 90
       50
102
RTVSPost2010PropOp48
 70
     1
102
RTVSPost2010Prop49
280
     0
102
RTVSPost2010PropOp49
 70
     1
102
RTVSPost2010Prop50
 90
       50
102
RTVSPost2010PropOp50
 70
     1
102
RTVSPost2010Prop51ColorIndex
 90
      256
102
RTVSPost2010Prop51ColorRGB
 90
-16777216
102
RTVSPost2010PropOp51
 70
     0
102
RTVSPost2010Prop52
140
1.0
102
RTVSPost2010PropOp52
 70
     0
102
RTVSPost2010Prop53
 90
        2
102
RTVSPost2010PropOp53
 70
     1
102
RTVSPost2010Prop54
  1
strokes_ogs.tif
102
RTVSPost2010PropOp54
 70
     1
102
RTVSPost2010Prop55
280
     0
102
RTVSPost2010PropOp55
 70
     1
102
RTVSPost2010Prop56
140
1.0
102
RTVSPost2010PropOp56
 70
     1
102
RTVSPost2010Prop57
140
1.0
102
RTVSPost2010PropOp57
 70
     1
102
RTVSPropertyOp0
 70
     1
102
RTVSPropertyOp1
 70
     1
102
RTVSPropertyOp2
 70
     1
102
RTVSPropertyOp3
 70
     1
102
RTVSPropertyOp4
 70
     1
102
RTVSPropertyOp5
 70
     1
102
RTVSPropertyOp6
 70
     1
102
RTVSPropertyOp7
 70
     1
102
RTVSPropertyOp8
 70
     1
102
RTVSPropertyOp9
 70
     1
102
RTVSPropertyOp10
 70
     1
102
RTVSPropertyOp11
 70
     1
102
RTVSPropertyOp12
 70
     1
102
RTVSPropertyOp13
 70
     1
102
RTVSPropertyOp14
 70
     1
102
RTVSPropertyOp15
 70
     1
102
RTVSPropertyOp16
 70
     1
102
RTVSPropertyOp17
 70
     1
102
RTVSPropertyOp18
 70
     1
102
RTVSPropertyOp19
 70
     1
102
RTVSPropertyOp20
 70
     1
102
RTVSPropertyOp21
 70
     1
102
RTVSPropertyOp22
 70
     1
102
RTVSPropertyOp23
 70
     1
102
RTVSPropertyOp24
 70
     1
102
RTVSPropertyOp25
 70
     1
102
RTVSPropertyOp26
 70
     1
102
RTVSPropertyOp27
 70
     1
102
RTVSPropertyOp28
 70
     1
102
RTVSPropertyOp29
 70
     1
102
RTVSPropertyOp30
 70
     1
102
RTVSPropertyOp31
 70
     1
102
RTVSPropertyOp32
 70
     1
102
RTVSPropertyOp33
 70
     1
102
RTVSPropertyOp34
 70
     1
102
RTVSPropertyOp35
 70
     1
102
RTVSPropertyOp36
 70
     1
102
RTVSPropertyOp37
 70
     1
102
RTVSPropertyOp38
 70
     1
102
RTVSPropertyOp39
 70
     1
102
RTVSPropertyOp40
 70
     1
102
RTVSPropertyOp41
 70
     1
102
RTVSPropertyOp42
 70
     1
102
RTVSPropertyOp43
 70
     1
102
RTVSPropertyOp44
 70
     1
102
RTVSPropertyOp45
 70
     1
102
RTVSPropertyOp46
 70
     1
102
RTVSPropertyOp47
 70
     1
102
RTVSPropertyOp48
 70
     1
102
RTVSPropertyOp49
 70
     1
102
RTVSPropertyOp50
 70
     1
102
RTVSPropertyOp51
 70
     0
102
RTVSPropertyOp52
 70
     0
102
RTVSPropertyOp53
 70
     1
102
RTVSPropertyOp54
 70
     1
102
RTVSPropertyOp55
 70
     1
102
RTVSPropertyOp56
 70
     1
102
RTVSPropertyOp57
 70
     1
102
RTVSPropertyOp58
 70
     1
102
RTVSPropertyOp59
 70
     1
102
RTVSPropertyOp60
 70
     1
102
RTVSPropertyOp61
 70
     1
102
RTVSPropertyOp62
 70
     1
  0
XRECORD
  5
4F7D
102
{ACAD_REACTORS
330
4F7C
102
}
330
4F7C
100
AcDbXrecord
280
     1
102
RTVSPost2010Prop28
280
     0
102
RTVSPost2010PropOp28
 70
     1
102
RTVSPost2010Prop29
280
     1
102
RTVSPost2010PropOp29
 70
     1
102
RTVSPost2010Prop30
280
     1
102
RTVSPost2010PropOp30
 70
     1
102
RTVSPost2010Prop31
280
     0
102
RTVSPost2010PropOp31
 70
     1
102
RTVSPost2010Prop32
280
     0
102
RTVSPost2010PropOp32
 70
     1
102
RTVSPost2010Prop33
280
     0
102
RTVSPost2010PropOp33
 70
     1
102
RTVSPost2010Prop34
280
     0
102
RTVSPost2010PropOp34
 70
     1
102
RTVSPost2010Prop35
280
     0
102
RTVSPost2010PropOp35
 70
     1
102
RTVSPost2010Prop36
280
     0
102
RTVSPost2010PropOp36
 70
     1
102
RTVSPost2010Prop37
 90
       50
102
RTVSPost2010PropOp37
 70
     1
102
RTVSPost2010Prop38
140
0.0
102
RTVSPost2010PropOp38
 70
     1
102
RTVSPost2010Prop39
140
1.0
102
RTVSPost2010PropOp39
 70
     1
102
RTVSPost2010Prop40
 90
        0
102
RTVSPost2010PropOp40
 70
     1
102
RTVSPost2010Prop41ColorIndex
 90
       18
102
RTVSPost2010Prop41ColorRGB
 90
        0
102
RTVSPost2010PropOp41
 70
     1
102
RTVSPost2010Prop42
 90
       50
102
RTVSPost2010PropOp42
 70
     1
102
RTVSPost2010Prop43
 90
        3
102
RTVSPost2010PropOp43
 70
     1
102
RTVSPost2010Prop44ColorIndex
 90
        5
102
RTVSPost2010Prop44ColorRGB
 90
      255
102
RTVSPost2010PropOp44
 70
     1
102
RTVSPost2010Prop45
280
     0
102
RTVSPost2010PropOp45
 70
     1
102
RTVSPost2010Prop46
 90
       50
102
RTVSPost2010PropOp46
 70
     1
102
RTVSPost2010Prop47
 90
       50
102
RTVSPost2010PropOp47
 70
     1
102
RTVSPost2010Prop48
 90
       50
102
RTVSPost2010PropOp48
 70
     1
102
RTVSPost2010Prop49
280
     0
102
RTVSPost2010PropOp49
 70
     1
102
RTVSPost2010Prop50
 90
       50
102
RTVSPost2010PropOp50
 70
     1
102
RTVSPost2010Prop51ColorIndex
 90
      256
102
RTVSPost2010Prop51ColorRGB
 90
-16777216
102
RTVSPost2010PropOp51
 70
     0
102
RTVSPost2010Prop52
140
1.0
102
RTVSPost2010PropOp52
 70
     0
102
RTVSPost2010Prop53
 90
        2
102
RTVSPost2010PropOp53
 70
     1
102
RTVSPost2010Prop54
  1
strokes_ogs.tif
102
RTVSPost2010PropOp54
 70
     1
102
RTVSPost2010Prop55
280
     0
102
RTVSPost2010PropOp55
 70
     1
102
RTVSPost2010Prop56
140
1.0
102
RTVSPost2010PropOp56
 70
     1
102
RTVSPost2010Prop57
140
1.0
102
RTVSPost2010PropOp57
 70
     1
102
RTVSPropertyOp0
 70
     1
102
RTVSPropertyOp1
 70
     1
102
RTVSPropertyOp2
 70
     1
102
RTVSPropertyOp3
 70
     1
102
RTVSPropertyOp4
 70
     1
102
RTVSPropertyOp5
 70
     1
102
RTVSPropertyOp6
 70
     1
102
RTVSPropertyOp7
 70
     1
102
RTVSPropertyOp8
 70
     1
102
RTVSPropertyOp9
 70
     1
102
RTVSPropertyOp10
 70
     1
102
RTVSPropertyOp11
 70
     1
102
RTVSPropertyOp12
 70
     1
102
RTVSPropertyOp13
 70
     1
102
RTVSPropertyOp14
 70
     1
102
RTVSPropertyOp15
 70
     1
102
RTVSPropertyOp16
 70
     1
102
RTVSPropertyOp17
 70
     1
102
RTVSPropertyOp18
 70
     1
102
RTVSPropertyOp19
 70
     1
102
RTVSPropertyOp20
 70
     1
102
RTVSPropertyOp21
 70
     1
102
RTVSPropertyOp22
 70
     1
102
RTVSPropertyOp23
 70
     1
102
RTVSPropertyOp24
 70
     1
102
RTVSPropertyOp25
 70
     1
102
RTVSPropertyOp26
 70
     1
102
RTVSPropertyOp27
 70
     1
102
RTVSPropertyOp28
 70
     1
102
RTVSPropertyOp29
 70
     1
102
RTVSPropertyOp30
 70
     1
102
RTVSPropertyOp31
 70
     1
102
RTVSPropertyOp32
 70
     1
102
RTVSPropertyOp33
 70
     1
102
RTVSPropertyOp34
 70
     1
102
RTVSPropertyOp35
 70
     1
102
RTVSPropertyOp36
 70
     1
102
RTVSPropertyOp37
 70
     1
102
RTVSPropertyOp38
 70
     1
102
RTVSPropertyOp39
 70
     1
102
RTVSPropertyOp40
 70
     1
102
RTVSPropertyOp41
 70
     1
102
RTVSPropertyOp42
 70
     1
102
RTVSPropertyOp43
 70
     1
102
RTVSPropertyOp44
 70
     1
102
RTVSPropertyOp45
 70
     1
102
RTVSPropertyOp46
 70
     1
102
RTVSPropertyOp47
 70
     1
102
RTVSPropertyOp48
 70
     1
102
RTVSPropertyOp49
 70
     1
102
RTVSPropertyOp50
 70
     1
102
RTVSPropertyOp51
 70
     0
102
RTVSPropertyOp52
 70
     0
102
RTVSPropertyOp53
 70
     1
102
RTVSPropertyOp54
 70
     1
102
RTVSPropertyOp55
 70
     1
102
RTVSPropertyOp56
 70
     1
102
RTVSPropertyOp57
 70
     1
102
RTVSPropertyOp58
 70
     1
102
RTVSPropertyOp59
 70
     1
102
RTVSPropertyOp60
 70
     1
102
RTVSPropertyOp61
 70
     1
102
RTVSPropertyOp62
 70
     1
  0
XRECORD
  5
4F7F
102
{ACAD_REACTORS
330
4F7E
102
}
330
4F7E
100
AcDbXrecord
280
     1
102
RTVSPost2010Prop28
280
     0
102
RTVSPost2010PropOp28
 70
     1
102
RTVSPost2010Prop29
280
     1
102
RTVSPost2010PropOp29
 70
     1
102
RTVSPost2010Prop30
280
     1
102
RTVSPost2010PropOp30
 70
     1
102
RTVSPost2010Prop31
280
     0
102
RTVSPost2010PropOp31
 70
     1
102
RTVSPost2010Prop32
280
     0
102
RTVSPost2010PropOp32
 70
     1
102
RTVSPost2010Prop33
280
     0
102
RTVSPost2010PropOp33
 70
     1
102
RTVSPost2010Prop34
280
     0
102
RTVSPost2010PropOp34
 70
     1
102
RTVSPost2010Prop35
280
     0
102
RTVSPost2010PropOp35
 70
     1
102
RTVSPost2010Prop36
280
     0
102
RTVSPost2010PropOp36
 70
     1
102
RTVSPost2010Prop37
 90
       50
102
RTVSPost2010PropOp37
 70
     1
102
RTVSPost2010Prop38
140
0.0
102
RTVSPost2010PropOp38
 70
     1
102
RTVSPost2010Prop39
140
1.0
102
RTVSPost2010PropOp39
 70
     1
102
RTVSPost2010Prop40
 90
        0
102
RTVSPost2010PropOp40
 70
     1
102
RTVSPost2010Prop41ColorIndex
 90
       18
102
RTVSPost2010Prop41ColorRGB
 90
        0
102
RTVSPost2010PropOp41
 70
     1
102
RTVSPost2010Prop42
 90
       50
102
RTVSPost2010PropOp42
 70
     1
102
RTVSPost2010Prop43
 90
        3
102
RTVSPost2010PropOp43
 70
     1
102
RTVSPost2010Prop44ColorIndex
 90
        5
102
RTVSPost2010Prop44ColorRGB
 90
      255
102
RTVSPost2010PropOp44
 70
     1
102
RTVSPost2010Prop45
280
     0
102
RTVSPost2010PropOp45
 70
     1
102
RTVSPost2010Prop46
 90
       50
102
RTVSPost2010PropOp46
 70
     1
102
RTVSPost2010Prop47
 90
       50
102
RTVSPost2010PropOp47
 70
     1
102
RTVSPost2010Prop48
 90
       50
102
RTVSPost2010PropOp48
 70
     1
102
RTVSPost2010Prop49
280
     0
102
RTVSPost2010PropOp49
 70
     1
102
RTVSPost2010Prop50
 90
       50
102
RTVSPost2010PropOp50
 70
     1
102
RTVSPost2010Prop51ColorIndex
 90
      256
102
RTVSPost2010Prop51ColorRGB
 90
-16777216
102
RTVSPost2010PropOp51
 70
     0
102
RTVSPost2010Prop52
140
1.0
102
RTVSPost2010PropOp52
 70
     0
102
RTVSPost2010Prop53
 90
        2
102
RTVSPost2010PropOp53
 70
     1
102
RTVSPost2010Prop54
  1
strokes_ogs.tif
102
RTVSPost2010PropOp54
 70
     1
102
RTVSPost2010Prop55
280
     0
102
RTVSPost2010PropOp55
 70
     1
102
RTVSPost2010Prop56
140
1.0
102
RTVSPost2010PropOp56
 70
     1
102
RTVSPost2010Prop57
140
1.0
102
RTVSPost2010PropOp57
 70
     1
102
RTVSPropertyOp0
 70
     1
102
RTVSPropertyOp1
 70
     1
102
RTVSPropertyOp2
 70
     1
102
RTVSPropertyOp3
 70
     1
102
RTVSPropertyOp4
 70
     1
102
RTVSPropertyOp5
 70
     1
102
RTVSPropertyOp6
 70
     1
102
RTVSPropertyOp7
 70
     1
102
RTVSPropertyOp8
 70
     1
102
RTVSPropertyOp9
 70
     1
102
RTVSPropertyOp10
 70
     1
102
RTVSPropertyOp11
 70
     1
102
RTVSPropertyOp12
 70
     1
102
RTVSPropertyOp13
 70
     1
102
RTVSPropertyOp14
 70
     1
102
RTVSPropertyOp15
 70
     1
102
RTVSPropertyOp16
 70
     1
102
RTVSPropertyOp17
 70
     1
102
RTVSPropertyOp18
 70
     1
102
RTVSPropertyOp19
 70
     1
102
RTVSPropertyOp20
 70
     1
102
RTVSPropertyOp21
 70
     1
102
RTVSPropertyOp22
 70
     1
102
RTVSPropertyOp23
 70
     1
102
RTVSPropertyOp24
 70
     1
102
RTVSPropertyOp25
 70
     1
102
RTVSPropertyOp26
 70
     1
102
RTVSPropertyOp27
 70
     1
102
RTVSPropertyOp28
 70
     1
102
RTVSPropertyOp29
 70
     1
102
RTVSPropertyOp30
 70
     1
102
RTVSPropertyOp31
 70
     1
102
RTVSPropertyOp32
 70
     1
102
RTVSPropertyOp33
 70
     1
102
RTVSPropertyOp34
 70
     1
102
RTVSPropertyOp35
 70
     1
102
RTVSPropertyOp36
 70
     1
102
RTVSPropertyOp37
 70
     1
102
RTVSPropertyOp38
 70
     1
102
RTVSPropertyOp39
 70
     1
102
RTVSPropertyOp40
 70
     1
102
RTVSPropertyOp41
 70
     1
102
RTVSPropertyOp42
 70
     1
102
RTVSPropertyOp43
 70
     1
102
RTVSPropertyOp44
 70
     1
102
RTVSPropertyOp45
 70
     1
102
RTVSPropertyOp46
 70
     1
102
RTVSPropertyOp47
 70
     1
102
RTVSPropertyOp48
 70
     1
102
RTVSPropertyOp49
 70
     1
102
RTVSPropertyOp50
 70
     1
102
RTVSPropertyOp51
 70
     0
102
RTVSPropertyOp52
 70
     0
102
RTVSPropertyOp53
 70
     1
102
RTVSPropertyOp54
 70
     1
102
RTVSPropertyOp55
 70
     1
102
RTVSPropertyOp56
 70
     1
102
RTVSPropertyOp57
 70
     1
102
RTVSPropertyOp58
 70
     1
102
RTVSPropertyOp59
 70
     1
102
RTVSPropertyOp60
 70
     1
102
RTVSPropertyOp61
 70
     1
102
RTVSPropertyOp62
 70
     1
  0
XRECORD
  5
4F87
102
{ACAD_REACTORS
330
4F86
102
}
330
4F86
100
AcDbXrecord
280
     1
102
RTVSPost2010Prop28
280
     0
102
RTVSPost2010PropOp28
 70
     1
102
RTVSPost2010Prop29
280
     1
102
RTVSPost2010PropOp29
 70
     1
102
RTVSPost2010Prop30
280
     1
102
RTVSPost2010PropOp30
 70
     1
102
RTVSPost2010Prop31
280
     0
102
RTVSPost2010PropOp31
 70
     1
102
RTVSPost2010Prop32
280
     0
102
RTVSPost2010PropOp32
 70
     1
102
RTVSPost2010Prop33
280
     0
102
RTVSPost2010PropOp33
 70
     1
102
RTVSPost2010Prop34
280
     0
102
RTVSPost2010PropOp34
 70
     1
102
RTVSPost2010Prop35
280
     0
102
RTVSPost2010PropOp35
 70
     1
102
RTVSPost2010Prop36
280
     0
102
RTVSPost2010PropOp36
 70
     1
102
RTVSPost2010Prop37
 90
       50
102
RTVSPost2010PropOp37
 70
     1
102
RTVSPost2010Prop38
140
0.0
102
RTVSPost2010PropOp38
 70
     1
102
RTVSPost2010Prop39
140
1.0
102
RTVSPost2010PropOp39
 70
     1
102
RTVSPost2010Prop40
 90
        0
102
RTVSPost2010PropOp40
 70
     1
102
RTVSPost2010Prop41ColorIndex
 90
       18
102
RTVSPost2010Prop41ColorRGB
 90
        0
102
RTVSPost2010PropOp41
 70
     1
102
RTVSPost2010Prop42
 90
       50
102
RTVSPost2010PropOp42
 70
     1
102
RTVSPost2010Prop43
 90
        3
102
RTVSPost2010PropOp43
 70
     1
102
RTVSPost2010Prop44ColorIndex
 90
        5
102
RTVSPost2010Prop44ColorRGB
 90
      255
102
RTVSPost2010PropOp44
 70
     1
102
RTVSPost2010Prop45
280
     0
102
RTVSPost2010PropOp45
 70
     1
102
RTVSPost2010Prop46
 90
       50
102
RTVSPost2010PropOp46
 70
     1
102
RTVSPost2010Prop47
 90
       50
102
RTVSPost2010PropOp47
 70
     1
102
RTVSPost2010Prop48
 90
       50
102
RTVSPost2010PropOp48
 70
     1
102
RTVSPost2010Prop49
280
     0
102
RTVSPost2010PropOp49
 70
     1
102
RTVSPost2010Prop50
 90
       50
102
RTVSPost2010PropOp50
 70
     1
102
RTVSPost2010Prop51ColorIndex
 90
      256
102
RTVSPost2010Prop51ColorRGB
 90
-16777216
102
RTVSPost2010PropOp51
 70
     0
102
RTVSPost2010Prop52
140
1.0
102
RTVSPost2010PropOp52
 70
     0
102
RTVSPost2010Prop53
 90
        2
102
RTVSPost2010PropOp53
 70
     1
102
RTVSPost2010Prop54
  1
strokes_ogs.tif
102
RTVSPost2010PropOp54
 70
     1
102
RTVSPost2010Prop55
280
     0
102
RTVSPost2010PropOp55
 70
     1
102
RTVSPost2010Prop56
140
1.0
102
RTVSPost2010PropOp56
 70
     1
102
RTVSPost2010Prop57
140
1.0
102
RTVSPost2010PropOp57
 70
     1
102
RTVSPropertyOp0
 70
     1
102
RTVSPropertyOp1
 70
     1
102
RTVSPropertyOp2
 70
     1
102
RTVSPropertyOp3
 70
     1
102
RTVSPropertyOp4
 70
     1
102
RTVSPropertyOp5
 70
     1
102
RTVSPropertyOp6
 70
     1
102
RTVSPropertyOp7
 70
     1
102
RTVSPropertyOp8
 70
     1
102
RTVSPropertyOp9
 70
     1
102
RTVSPropertyOp10
 70
     1
102
RTVSPropertyOp11
 70
     1
102
RTVSPropertyOp12
 70
     1
102
RTVSPropertyOp13
 70
     1
102
RTVSPropertyOp14
 70
     1
102
RTVSPropertyOp15
 70
     1
102
RTVSPropertyOp16
 70
     1
102
RTVSPropertyOp17
 70
     1
102
RTVSPropertyOp18
 70
     1
102
RTVSPropertyOp19
 70
     1
102
RTVSPropertyOp20
 70
     1
102
RTVSPropertyOp21
 70
     1
102
RTVSPropertyOp22
 70
     1
102
RTVSPropertyOp23
 70
     1
102
RTVSPropertyOp24
 70
     1
102
RTVSPropertyOp25
 70
     1
102
RTVSPropertyOp26
 70
     1
102
RTVSPropertyOp27
 70
     1
102
RTVSPropertyOp28
 70
     1
102
RTVSPropertyOp29
 70
     1
102
RTVSPropertyOp30
 70
     1
102
RTVSPropertyOp31
 70
     1
102
RTVSPropertyOp32
 70
     1
102
RTVSPropertyOp33
 70
     1
102
RTVSPropertyOp34
 70
     1
102
RTVSPropertyOp35
 70
     1
102
RTVSPropertyOp36
 70
     1
102
RTVSPropertyOp37
 70
     1
102
RTVSPropertyOp38
 70
     1
102
RTVSPropertyOp39
 70
     1
102
RTVSPropertyOp40
 70
     1
102
RTVSPropertyOp41
 70
     1
102
RTVSPropertyOp42
 70
     1
102
RTVSPropertyOp43
 70
     1
102
RTVSPropertyOp44
 70
     1
102
RTVSPropertyOp45
 70
     1
102
RTVSPropertyOp46
 70
     1
102
RTVSPropertyOp47
 70
     1
102
RTVSPropertyOp48
 70
     1
102
RTVSPropertyOp49
 70
     1
102
RTVSPropertyOp50
 70
     1
102
RTVSPropertyOp51
 70
     0
102
RTVSPropertyOp52
 70
     0
102
RTVSPropertyOp53
 70
     1
102
RTVSPropertyOp54
 70
     1
102
RTVSPropertyOp55
 70
     1
102
RTVSPropertyOp56
 70
     1
102
RTVSPropertyOp57
 70
     1
102
RTVSPropertyOp58
 70
     1
102
RTVSPropertyOp59
 70
     1
102
RTVSPropertyOp60
 70
     1
102
RTVSPropertyOp61
 70
     1
102
RTVSPropertyOp62
 70
     1
  0
XRECORD
  5
4FA3
102
{ACAD_REACTORS
330
4FA2
102
}
330
4FA2
100
AcDbXrecord
280
     1
102
RTVSPost2010Prop28
280
     0
102
RTVSPost2010PropOp28
 70
     0
102
RTVSPost2010Prop29
280
     1
102
RTVSPost2010PropOp29
 70
     0
102
RTVSPost2010Prop30
280
     1
102
RTVSPost2010PropOp30
 70
     0
102
RTVSPost2010Prop31
280
     0
102
RTVSPost2010PropOp31
 70
     0
102
RTVSPost2010Prop32
280
     0
102
RTVSPost2010PropOp32
 70
     0
102
RTVSPost2010Prop33
280
     0
102
RTVSPost2010PropOp33
 70
     0
102
RTVSPost2010Prop34
280
     0
102
RTVSPost2010PropOp34
 70
     0
102
RTVSPost2010Prop35
280
     0
102
RTVSPost2010PropOp35
 70
     0
102
RTVSPost2010Prop36
280
     0
102
RTVSPost2010PropOp36
 70
     0
102
RTVSPost2010Prop37
 90
       50
102
RTVSPost2010PropOp37
 70
     0
102
RTVSPost2010Prop38
140
0.0
102
RTVSPost2010PropOp38
 70
     0
102
RTVSPost2010Prop39
140
1.0
102
RTVSPost2010PropOp39
 70
     0
102
RTVSPost2010Prop40
 90
        0
102
RTVSPost2010PropOp40
 70
     0
102
RTVSPost2010Prop41ColorIndex
 90
       18
102
RTVSPost2010Prop41ColorRGB
 90
        0
102
RTVSPost2010PropOp41
 70
     0
102
RTVSPost2010Prop42
 90
       50
102
RTVSPost2010PropOp42
 70
     0
102
RTVSPost2010Prop43
 90
        3
102
RTVSPost2010PropOp43
 70
     0
102
RTVSPost2010Prop44ColorIndex
 90
        5
102
RTVSPost2010Prop44ColorRGB
 90
      255
102
RTVSPost2010PropOp44
 70
     0
102
RTVSPost2010Prop45
280
     0
102
RTVSPost2010PropOp45
 70
     0
102
RTVSPost2010Prop46
 90
       50
102
RTVSPost2010PropOp46
 70
     0
102
RTVSPost2010Prop47
 90
       50
102
RTVSPost2010PropOp47
 70
     0
102
RTVSPost2010Prop48
 90
       50
102
RTVSPost2010PropOp48
 70
     0
102
RTVSPost2010Prop49
280
     0
102
RTVSPost2010PropOp49
 70
     0
102
RTVSPost2010Prop50
 90
       50
102
RTVSPost2010PropOp50
 70
     0
102
RTVSPost2010Prop51ColorIndex
 90
      256
102
RTVSPost2010Prop51ColorRGB
 90
-16777216
102
RTVSPost2010PropOp51
 70
     0
102
RTVSPost2010Prop52
140
1.0
102
RTVSPost2010PropOp52
 70
     0
102
RTVSPost2010Prop53
 90
        2
102
RTVSPost2010PropOp53
 70
     0
102
RTVSPost2010Prop54
  1
strokes_ogs.tif
102
RTVSPost2010PropOp54
 70
     0
102
RTVSPost2010Prop55
280
     0
102
RTVSPost2010PropOp55
 70
     0
102
RTVSPost2010Prop56
140
1.0
102
RTVSPost2010PropOp56
 70
     0
102
RTVSPost2010Prop57
140
1.0
102
RTVSPost2010PropOp57
 70
     0
102
RTVSPropertyOp0
 70
     0
102
RTVSPropertyOp1
 70
     0
102
RTVSPropertyOp2
 70
     0
102
RTVSPropertyOp3
 70
     0
102
RTVSPropertyOp4
 70
     0
102
RTVSPropertyOp5
 70
     0
102
RTVSPropertyOp6
 70
     0
102
RTVSPropertyOp7
 70
     0
102
RTVSPropertyOp8
 70
     0
102
RTVSPropertyOp9
 70
     0
102
RTVSPropertyOp10
 70
     0
102
RTVSPropertyOp11
 70
     0
102
RTVSPropertyOp12
 70
     0
102
RTVSPropertyOp13
 70
     0
102
RTVSPropertyOp14
 70
     2
102
RTVSPropertyOp15
 70
     0
102
RTVSPropertyOp16
 70
     0
102
RTVSPropertyOp17
 70
     0
102
RTVSPropertyOp18
 70
     0
102
RTVSPropertyOp19
 70
     0
102
RTVSPropertyOp20
 70
     0
102
RTVSPropertyOp21
 70
     0
102
RTVSPropertyOp22
 70
     0
102
RTVSPropertyOp23
 70
     0
102
RTVSPropertyOp24
 70
     0
102
RTVSPropertyOp25
 70
     0
102
RTVSPropertyOp26
 70
     0
102
RTVSPropertyOp27
 70
     0
102
RTVSPropertyOp28
 70
     0
102
RTVSPropertyOp29
 70
     0
102
RTVSPropertyOp30
 70
     0
102
RTVSPropertyOp31
 70
     0
102
RTVSPropertyOp32
 70
     0
102
RTVSPropertyOp33
 70
     0
102
RTVSPropertyOp34
 70
     0
102
RTVSPropertyOp35
 70
     0
102
RTVSPropertyOp36
 70
     0
102
RTVSPropertyOp37
 70
     0
102
RTVSPropertyOp38
 70
     0
102
RTVSPropertyOp39
 70
     0
102
RTVSPropertyOp40
 70
     0
102
RTVSPropertyOp41
 70
     0
102
RTVSPropertyOp42
 70
     0
102
RTVSPropertyOp43
 70
     0
102
RTVSPropertyOp44
 70
     0
102
RTVSPropertyOp45
 70
     0
102
RTVSPropertyOp46
 70
     0
102
RTVSPropertyOp47
 70
     0
102
RTVSPropertyOp48
 70
     0
102
RTVSPropertyOp49
 70
     0
102
RTVSPropertyOp50
 70
     0
102
RTVSPropertyOp51
 70
     0
102
RTVSPropertyOp52
 70
     0
102
RTVSPropertyOp53
 70
     0
102
RTVSPropertyOp54
 70
     0
102
RTVSPropertyOp55
 70
     0
102
RTVSPropertyOp56
 70
     0
102
RTVSPropertyOp57
 70
     0
102
RTVSPropertyOp58
 70
     1
102
RTVSPropertyOp59
 70
     1
102
RTVSPropertyOp60
 70
     1
102
RTVSPropertyOp61
 70
     1
102
RTVSPropertyOp62
 70
     1
  0
XRECORD
  5
4F93
102
{ACAD_REACTORS
330
4F92
102
}
330
4F92
100
AcDbXrecord
280
     1
102
RTVSPost2010Prop28
280
     0
102
RTVSPost2010PropOp28
 70
     1
102
RTVSPost2010Prop29
280
     1
102
RTVSPost2010PropOp29
 70
     1
102
RTVSPost2010Prop30
280
     1
102
RTVSPost2010PropOp30
 70
     1
102
RTVSPost2010Prop31
280
     0
102
RTVSPost2010PropOp31
 70
     1
102
RTVSPost2010Prop32
280
     0
102
RTVSPost2010PropOp32
 70
     1
102
RTVSPost2010Prop33
280
     0
102
RTVSPost2010PropOp33
 70
     1
102
RTVSPost2010Prop34
280
     0
102
RTVSPost2010PropOp34
 70
     1
102
RTVSPost2010Prop35
280
     0
102
RTVSPost2010PropOp35
 70
     1
102
RTVSPost2010Prop36
280
     0
102
RTVSPost2010PropOp36
 70
     1
102
RTVSPost2010Prop37
 90
       50
102
RTVSPost2010PropOp37
 70
     1
102
RTVSPost2010Prop38
140
0.0
102
RTVSPost2010PropOp38
 70
     1
102
RTVSPost2010Prop39
140
1.0
102
RTVSPost2010PropOp39
 70
     1
102
RTVSPost2010Prop40
 90
        0
102
RTVSPost2010PropOp40
 70
     1
102
RTVSPost2010Prop41ColorIndex
 90
       18
102
RTVSPost2010Prop41ColorRGB
 90
        0
102
RTVSPost2010PropOp41
 70
     1
102
RTVSPost2010Prop42
 90
       50
102
RTVSPost2010PropOp42
 70
     1
102
RTVSPost2010Prop43
 90
        3
102
RTVSPost2010PropOp43
 70
     1
102
RTVSPost2010Prop44ColorIndex
 90
        5
102
RTVSPost2010Prop44ColorRGB
 90
      255
102
RTVSPost2010PropOp44
 70
     1
102
RTVSPost2010Prop45
280
     0
102
RTVSPost2010PropOp45
 70
     1
102
RTVSPost2010Prop46
 90
       50
102
RTVSPost2010PropOp46
 70
     1
102
RTVSPost2010Prop47
 90
       50
102
RTVSPost2010PropOp47
 70
     1
102
RTVSPost2010Prop48
 90
       50
102
RTVSPost2010PropOp48
 70
     1
102
RTVSPost2010Prop49
280
     0
102
RTVSPost2010PropOp49
 70
     1
102
RTVSPost2010Prop50
 90
       50
102
RTVSPost2010PropOp50
 70
     1
102
RTVSPost2010Prop51ColorIndex
 90
      256
102
RTVSPost2010Prop51ColorRGB
 90
-16777216
102
RTVSPost2010PropOp51
 70
     0
102
RTVSPost2010Prop52
140
1.0
102
RTVSPost2010PropOp52
 70
     0
102
RTVSPost2010Prop53
 90
        2
102
RTVSPost2010PropOp53
 70
     1
102
RTVSPost2010Prop54
  1
strokes_ogs.tif
102
RTVSPost2010PropOp54
 70
     1
102
RTVSPost2010Prop55
280
     0
102
RTVSPost2010PropOp55
 70
     1
102
RTVSPost2010Prop56
140
1.0
102
RTVSPost2010PropOp56
 70
     1
102
RTVSPost2010Prop57
140
1.0
102
RTVSPost2010PropOp57
 70
     1
102
RTVSPropertyOp0
 70
     1
102
RTVSPropertyOp1
 70
     1
102
RTVSPropertyOp2
 70
     1
102
RTVSPropertyOp3
 70
     1
102
RTVSPropertyOp4
 70
     1
102
RTVSPropertyOp5
 70
     1
102
RTVSPropertyOp6
 70
     1
102
RTVSPropertyOp7
 70
     1
102
RTVSPropertyOp8
 70
     1
102
RTVSPropertyOp9
 70
     1
102
RTVSPropertyOp10
 70
     1
102
RTVSPropertyOp11
 70
     1
102
RTVSPropertyOp12
 70
     1
102
RTVSPropertyOp13
 70
     1
102
RTVSPropertyOp14
 70
     1
102
RTVSPropertyOp15
 70
     1
102
RTVSPropertyOp16
 70
     1
102
RTVSPropertyOp17
 70
     1
102
RTVSPropertyOp18
 70
     1
102
RTVSPropertyOp19
 70
     1
102
RTVSPropertyOp20
 70
     1
102
RTVSPropertyOp21
 70
     1
102
RTVSPropertyOp22
 70
     1
102
RTVSPropertyOp23
 70
     1
102
RTVSPropertyOp24
 70
     1
102
RTVSPropertyOp25
 70
     1
102
RTVSPropertyOp26
 70
     1
102
RTVSPropertyOp27
 70
     1
102
RTVSPropertyOp28
 70
     1
102
RTVSPropertyOp29
 70
     1
102
RTVSPropertyOp30
 70
     1
102
RTVSPropertyOp31
 70
     1
102
RTVSPropertyOp32
 70
     1
102
RTVSPropertyOp33
 70
     1
102
RTVSPropertyOp34
 70
     1
102
RTVSPropertyOp35
 70
     1
102
RTVSPropertyOp36
 70
     1
102
RTVSPropertyOp37
 70
     1
102
RTVSPropertyOp38
 70
     1
102
RTVSPropertyOp39
 70
     1
102
RTVSPropertyOp40
 70
     1
102
RTVSPropertyOp41
 70
     1
102
RTVSPropertyOp42
 70
     1
102
RTVSPropertyOp43
 70
     1
102
RTVSPropertyOp44
 70
     1
102
RTVSPropertyOp45
 70
     1
102
RTVSPropertyOp46
 70
     1
102
RTVSPropertyOp47
 70
     1
102
RTVSPropertyOp48
 70
     1
102
RTVSPropertyOp49
 70
     1
102
RTVSPropertyOp50
 70
     1
102
RTVSPropertyOp51
 70
     0
102
RTVSPropertyOp52
 70
     0
102
RTVSPropertyOp53
 70
     1
102
RTVSPropertyOp54
 70
     1
102
RTVSPropertyOp55
 70
     1
102
RTVSPropertyOp56
 70
     1
102
RTVSPropertyOp57
 70
     1
102
RTVSPropertyOp58
 70
     1
102
RTVSPropertyOp59
 70
     1
102
RTVSPropertyOp60
 70
     1
102
RTVSPropertyOp61
 70
     1
102
RTVSPropertyOp62
 70
     1
  0
XRECORD
  5
4FA5
102
{ACAD_REACTORS
330
4FA4
102
}
330
4FA4
100
AcDbXrecord
280
     1
102
RTVSPost2010Prop28
280
     0
102
RTVSPost2010PropOp28
 70
     0
102
RTVSPost2010Prop29
280
     1
102
RTVSPost2010PropOp29
 70
     0
102
RTVSPost2010Prop30
280
     1
102
RTVSPost2010PropOp30
 70
     0
102
RTVSPost2010Prop31
280
     0
102
RTVSPost2010PropOp31
 70
     0
102
RTVSPost2010Prop32
280
     0
102
RTVSPost2010PropOp32
 70
     0
102
RTVSPost2010Prop33
280
     0
102
RTVSPost2010PropOp33
 70
     0
102
RTVSPost2010Prop34
280
     0
102
RTVSPost2010PropOp34
 70
     0
102
RTVSPost2010Prop35
280
     0
102
RTVSPost2010PropOp35
 70
     0
102
RTVSPost2010Prop36
280
     0
102
RTVSPost2010PropOp36
 70
     0
102
RTVSPost2010Prop37
 90
       50
102
RTVSPost2010PropOp37
 70
     0
102
RTVSPost2010Prop38
140
0.0
102
RTVSPost2010PropOp38
 70
     0
102
RTVSPost2010Prop39
140
1.0
102
RTVSPost2010PropOp39
 70
     0
102
RTVSPost2010Prop40
 90
        0
102
RTVSPost2010PropOp40
 70
     0
102
RTVSPost2010Prop41ColorIndex
 90
       18
102
RTVSPost2010Prop41ColorRGB
 90
        0
102
RTVSPost2010PropOp41
 70
     0
102
RTVSPost2010Prop42
 90
       50
102
RTVSPost2010PropOp42
 70
     0
102
RTVSPost2010Prop43
 90
        3
102
RTVSPost2010PropOp43
 70
     0
102
RTVSPost2010Prop44ColorIndex
 90
        5
102
RTVSPost2010Prop44ColorRGB
 90
      255
102
RTVSPost2010PropOp44
 70
     0
102
RTVSPost2010Prop45
280
     0
102
RTVSPost2010PropOp45
 70
     0
102
RTVSPost2010Prop46
 90
       50
102
RTVSPost2010PropOp46
 70
     0
102
RTVSPost2010Prop47
 90
       50
102
RTVSPost2010PropOp47
 70
     0
102
RTVSPost2010Prop48
 90
       50
102
RTVSPost2010PropOp48
 70
     0
102
RTVSPost2010Prop49
280
     0
102
RTVSPost2010PropOp49
 70
     0
102
RTVSPost2010Prop50
 90
       50
102
RTVSPost2010PropOp50
 70
     0
102
RTVSPost2010Prop51ColorIndex
 90
      256
102
RTVSPost2010Prop51ColorRGB
 90
-16777216
102
RTVSPost2010PropOp51
 70
     0
102
RTVSPost2010Prop52
140
1.0
102
RTVSPost2010PropOp52
 70
     0
102
RTVSPost2010Prop53
 90
        2
102
RTVSPost2010PropOp53
 70
     0
102
RTVSPost2010Prop54
  1
strokes_ogs.tif
102
RTVSPost2010PropOp54
 70
     0
102
RTVSPost2010Prop55
280
     0
102
RTVSPost2010PropOp55
 70
     0
102
RTVSPost2010Prop56
140
1.0
102
RTVSPost2010PropOp56
 70
     0
102
RTVSPost2010Prop57
140
1.0
102
RTVSPost2010PropOp57
 70
     0
102
RTVSPropertyOp0
 70
     0
102
RTVSPropertyOp1
 70
     0
102
RTVSPropertyOp2
 70
     0
102
RTVSPropertyOp3
 70
     0
102
RTVSPropertyOp4
 70
     0
102
RTVSPropertyOp5
 70
     0
102
RTVSPropertyOp6
 70
     0
102
RTVSPropertyOp7
 70
     0
102
RTVSPropertyOp8
 70
     0
102
RTVSPropertyOp9
 70
     0
102
RTVSPropertyOp10
 70
     0
102
RTVSPropertyOp11
 70
     0
102
RTVSPropertyOp12
 70
     0
102
RTVSPropertyOp13
 70
     0
102
RTVSPropertyOp14
 70
     2
102
RTVSPropertyOp15
 70
     0
102
RTVSPropertyOp16
 70
     0
102
RTVSPropertyOp17
 70
     0
102
RTVSPropertyOp18
 70
     0
102
RTVSPropertyOp19
 70
     0
102
RTVSPropertyOp20
 70
     0
102
RTVSPropertyOp21
 70
     0
102
RTVSPropertyOp22
 70
     0
102
RTVSPropertyOp23
 70
     0
102
RTVSPropertyOp24
 70
     0
102
RTVSPropertyOp25
 70
     0
102
RTVSPropertyOp26
 70
     0
102
RTVSPropertyOp27
 70
     0
102
RTVSPropertyOp28
 70
     0
102
RTVSPropertyOp29
 70
     0
102
RTVSPropertyOp30
 70
     0
102
RTVSPropertyOp31
 70
     0
102
RTVSPropertyOp32
 70
     0
102
RTVSPropertyOp33
 70
     0
102
RTVSPropertyOp34
 70
     0
102
RTVSPropertyOp35
 70
     0
102
RTVSPropertyOp36
 70
     0
102
RTVSPropertyOp37
 70
     0
102
RTVSPropertyOp38
 70
     0
102
RTVSPropertyOp39
 70
     0
102
RTVSPropertyOp40
 70
     0
102
RTVSPropertyOp41
 70
     0
102
RTVSPropertyOp42
 70
     0
102
RTVSPropertyOp43
 70
     0
102
RTVSPropertyOp44
 70
     0
102
RTVSPropertyOp45
 70
     0
102
RTVSPropertyOp46
 70
     0
102
RTVSPropertyOp47
 70
     0
102
RTVSPropertyOp48
 70
     0
102
RTVSPropertyOp49
 70
     0
102
RTVSPropertyOp50
 70
     0
102
RTVSPropertyOp51
 70
     0
102
RTVSPropertyOp52
 70
     0
102
RTVSPropertyOp53
 70
     0
102
RTVSPropertyOp54
 70
     0
102
RTVSPropertyOp55
 70
     0
102
RTVSPropertyOp56
 70
     0
102
RTVSPropertyOp57
 70
     0
102
RTVSPropertyOp58
 70
     1
102
RTVSPropertyOp59
 70
     1
102
RTVSPropertyOp60
 70
     1
102
RTVSPropertyOp61
 70
     1
102
RTVSPropertyOp62
 70
     1
  0
XRECORD
  5
4F8B
102
{ACAD_REACTORS
330
4F8A
102
}
330
4F8A
100
AcDbXrecord
280
     1
102
RTVSPost2010Prop28
280
     0
102
RTVSPost2010PropOp28
 70
     1
102
RTVSPost2010Prop29
280
     1
102
RTVSPost2010PropOp29
 70
     1
102
RTVSPost2010Prop30
280
     1
102
RTVSPost2010PropOp30
 70
     1
102
RTVSPost2010Prop31
280
     0
102
RTVSPost2010PropOp31
 70
     1
102
RTVSPost2010Prop32
280
     0
102
RTVSPost2010PropOp32
 70
     1
102
RTVSPost2010Prop33
280
     0
102
RTVSPost2010PropOp33
 70
     1
102
RTVSPost2010Prop34
280
     0
102
RTVSPost2010PropOp34
 70
     1
102
RTVSPost2010Prop35
280
     0
102
RTVSPost2010PropOp35
 70
     1
102
RTVSPost2010Prop36
280
     0
102
RTVSPost2010PropOp36
 70
     1
102
RTVSPost2010Prop37
 90
       50
102
RTVSPost2010PropOp37
 70
     1
102
RTVSPost2010Prop38
140
0.0
102
RTVSPost2010PropOp38
 70
     1
102
RTVSPost2010Prop39
140
1.0
102
RTVSPost2010PropOp39
 70
     1
102
RTVSPost2010Prop40
 90
        0
102
RTVSPost2010PropOp40
 70
     1
102
RTVSPost2010Prop41ColorIndex
 90
       18
102
RTVSPost2010Prop41ColorRGB
 90
        0
102
RTVSPost2010PropOp41
 70
     1
102
RTVSPost2010Prop42
 90
       50
102
RTVSPost2010PropOp42
 70
     1
102
RTVSPost2010Prop43
 90
        3
102
RTVSPost2010PropOp43
 70
     1
102
RTVSPost2010Prop44ColorIndex
 90
        5
102
RTVSPost2010Prop44ColorRGB
 90
      255
102
RTVSPost2010PropOp44
 70
     1
102
RTVSPost2010Prop45
280
     0
102
RTVSPost2010PropOp45
 70
     1
102
RTVSPost2010Prop46
 90
       50
102
RTVSPost2010PropOp46
 70
     1
102
RTVSPost2010Prop47
 90
       50
102
RTVSPost2010PropOp47
 70
     1
102
RTVSPost2010Prop48
 90
       50
102
RTVSPost2010PropOp48
 70
     1
102
RTVSPost2010Prop49
280
     0
102
RTVSPost2010PropOp49
 70
     1
102
RTVSPost2010Prop50
 90
       50
102
RTVSPost2010PropOp50
 70
     1
102
RTVSPost2010Prop51ColorIndex
 90
      256
102
RTVSPost2010Prop51ColorRGB
 90
-16777216
102
RTVSPost2010PropOp51
 70
     0
102
RTVSPost2010Prop52
140
1.0
102
RTVSPost2010PropOp52
 70
     0
102
RTVSPost2010Prop53
 90
        2
102
RTVSPost2010PropOp53
 70
     1
102
RTVSPost2010Prop54
  1
strokes_ogs.tif
102
RTVSPost2010PropOp54
 70
     1
102
RTVSPost2010Prop55
280
     0
102
RTVSPost2010PropOp55
 70
     1
102
RTVSPost2010Prop56
140
1.0
102
RTVSPost2010PropOp56
 70
     1
102
RTVSPost2010Prop57
140
1.0
102
RTVSPost2010PropOp57
 70
     1
102
RTVSPropertyOp0
 70
     1
102
RTVSPropertyOp1
 70
     1
102
RTVSPropertyOp2
 70
     1
102
RTVSPropertyOp3
 70
     1
102
RTVSPropertyOp4
 70
     1
102
RTVSPropertyOp5
 70
     1
102
RTVSPropertyOp6
 70
     1
102
RTVSPropertyOp7
 70
     1
102
RTVSPropertyOp8
 70
     1
102
RTVSPropertyOp9
 70
     1
102
RTVSPropertyOp10
 70
     1
102
RTVSPropertyOp11
 70
     1
102
RTVSPropertyOp12
 70
     1
102
RTVSPropertyOp13
 70
     1
102
RTVSPropertyOp14
 70
     1
102
RTVSPropertyOp15
 70
     1
102
RTVSPropertyOp16
 70
     1
102
RTVSPropertyOp17
 70
     1
102
RTVSPropertyOp18
 70
     1
102
RTVSPropertyOp19
 70
     1
102
RTVSPropertyOp20
 70
     1
102
RTVSPropertyOp21
 70
     1
102
RTVSPropertyOp22
 70
     1
102
RTVSPropertyOp23
 70
     1
102
RTVSPropertyOp24
 70
     1
102
RTVSPropertyOp25
 70
     1
102
RTVSPropertyOp26
 70
     1
102
RTVSPropertyOp27
 70
     1
102
RTVSPropertyOp28
 70
     1
102
RTVSPropertyOp29
 70
     1
102
RTVSPropertyOp30
 70
     1
102
RTVSPropertyOp31
 70
     1
102
RTVSPropertyOp32
 70
     1
102
RTVSPropertyOp33
 70
     1
102
RTVSPropertyOp34
 70
     1
102
RTVSPropertyOp35
 70
     1
102
RTVSPropertyOp36
 70
     1
102
RTVSPropertyOp37
 70
     1
102
RTVSPropertyOp38
 70
     1
102
RTVSPropertyOp39
 70
     1
102
RTVSPropertyOp40
 70
     1
102
RTVSPropertyOp41
 70
     1
102
RTVSPropertyOp42
 70
     1
102
RTVSPropertyOp43
 70
     1
102
RTVSPropertyOp44
 70
     1
102
RTVSPropertyOp45
 70
     1
102
RTVSPropertyOp46
 70
     1
102
RTVSPropertyOp47
 70
     1
102
RTVSPropertyOp48
 70
     1
102
RTVSPropertyOp49
 70
     1
102
RTVSPropertyOp50
 70
     1
102
RTVSPropertyOp51
 70
     0
102
RTVSPropertyOp52
 70
     0
102
RTVSPropertyOp53
 70
     1
102
RTVSPropertyOp54
 70
     1
102
RTVSPropertyOp55
 70
     1
102
RTVSPropertyOp56
 70
     1
102
RTVSPropertyOp57
 70
     1
102
RTVSPropertyOp58
 70
     1
102
RTVSPropertyOp59
 70
     1
102
RTVSPropertyOp60
 70
     1
102
RTVSPropertyOp61
 70
     1
102
RTVSPropertyOp62
 70
     1
  0
XRECORD
  5
4FA1
102
{ACAD_REACTORS
330
4FA0
102
}
330
4FA0
100
AcDbXrecord
280
     1
102
RTVSPost2010Prop28
280
     0
102
RTVSPost2010PropOp28
 70
     1
102
RTVSPost2010Prop29
280
     1
102
RTVSPost2010PropOp29
 70
     1
102
RTVSPost2010Prop30
280
     1
102
RTVSPost2010PropOp30
 70
     1
102
RTVSPost2010Prop31
280
     0
102
RTVSPost2010PropOp31
 70
     1
102
RTVSPost2010Prop32
280
     0
102
RTVSPost2010PropOp32
 70
     1
102
RTVSPost2010Prop33
280
     0
102
RTVSPost2010PropOp33
 70
     1
102
RTVSPost2010Prop34
280
     0
102
RTVSPost2010PropOp34
 70
     1
102
RTVSPost2010Prop35
280
     0
102
RTVSPost2010PropOp35
 70
     1
102
RTVSPost2010Prop36
280
     0
102
RTVSPost2010PropOp36
 70
     1
102
RTVSPost2010Prop37
 90
       50
102
RTVSPost2010PropOp37
 70
     1
102
RTVSPost2010Prop38
140
0.0
102
RTVSPost2010PropOp38
 70
     1
102
RTVSPost2010Prop39
140
1.0
102
RTVSPost2010PropOp39
 70
     1
102
RTVSPost2010Prop40
 90
        0
102
RTVSPost2010PropOp40
 70
     1
102
RTVSPost2010Prop41ColorIndex
 90
       18
102
RTVSPost2010Prop41ColorRGB
 90
        0
102
RTVSPost2010PropOp41
 70
     1
102
RTVSPost2010Prop42
 90
       50
102
RTVSPost2010PropOp42
 70
     1
102
RTVSPost2010Prop43
 90
        3
102
RTVSPost2010PropOp43
 70
     1
102
RTVSPost2010Prop44ColorIndex
 90
        5
102
RTVSPost2010Prop44ColorRGB
 90
      255
102
RTVSPost2010PropOp44
 70
     1
102
RTVSPost2010Prop45
280
     0
102
RTVSPost2010PropOp45
 70
     1
102
RTVSPost2010Prop46
 90
       50
102
RTVSPost2010PropOp46
 70
     1
102
RTVSPost2010Prop47
 90
       50
102
RTVSPost2010PropOp47
 70
     1
102
RTVSPost2010Prop48
 90
       50
102
RTVSPost2010PropOp48
 70
     1
102
RTVSPost2010Prop49
280
     0
102
RTVSPost2010PropOp49
 70
     1
102
RTVSPost2010Prop50
 90
       50
102
RTVSPost2010PropOp50
 70
     1
102
RTVSPost2010Prop51ColorIndex
 90
      256
102
RTVSPost2010Prop51ColorRGB
 90
-16777216
102
RTVSPost2010PropOp51
 70
     0
102
RTVSPost2010Prop52
140
1.0
102
RTVSPost2010PropOp52
 70
     0
102
RTVSPost2010Prop53
 90
        2
102
RTVSPost2010PropOp53
 70
     1
102
RTVSPost2010Prop54
  1
strokes_ogs.tif
102
RTVSPost2010PropOp54
 70
     1
102
RTVSPost2010Prop55
280
     0
102
RTVSPost2010PropOp55
 70
     1
102
RTVSPost2010Prop56
140
1.0
102
RTVSPost2010PropOp56
 70
     1
102
RTVSPost2010Prop57
140
1.0
102
RTVSPost2010PropOp57
 70
     1
102
RTVSPropertyOp0
 70
     1
102
RTVSPropertyOp1
 70
     1
102
RTVSPropertyOp2
 70
     1
102
RTVSPropertyOp3
 70
     1
102
RTVSPropertyOp4
 70
     1
102
RTVSPropertyOp5
 70
     1
102
RTVSPropertyOp6
 70
     1
102
RTVSPropertyOp7
 70
     1
102
RTVSPropertyOp8
 70
     1
102
RTVSPropertyOp9
 70
     1
102
RTVSPropertyOp10
 70
     1
102
RTVSPropertyOp11
 70
     1
102
RTVSPropertyOp12
 70
     1
102
RTVSPropertyOp13
 70
     1
102
RTVSPropertyOp14
 70
     1
102
RTVSPropertyOp15
 70
     1
102
RTVSPropertyOp16
 70
     1
102
RTVSPropertyOp17
 70
     1
102
RTVSPropertyOp18
 70
     1
102
RTVSPropertyOp19
 70
     1
102
RTVSPropertyOp20
 70
     1
102
RTVSPropertyOp21
 70
     1
102
RTVSPropertyOp22
 70
     1
102
RTVSPropertyOp23
 70
     1
102
RTVSPropertyOp24
 70
     1
102
RTVSPropertyOp25
 70
     1
102
RTVSPropertyOp26
 70
     1
102
RTVSPropertyOp27
 70
     1
102
RTVSPropertyOp28
 70
     1
102
RTVSPropertyOp29
 70
     1
102
RTVSPropertyOp30
 70
     1
102
RTVSPropertyOp31
 70
     1
102
RTVSPropertyOp32
 70
     1
102
RTVSPropertyOp33
 70
     1
102
RTVSPropertyOp34
 70
     1
102
RTVSPropertyOp35
 70
     1
102
RTVSPropertyOp36
 70
     1
102
RTVSPropertyOp37
 70
     1
102
RTVSPropertyOp38
 70
     1
102
RTVSPropertyOp39
 70
     1
102
RTVSPropertyOp40
 70
     1
102
RTVSPropertyOp41
 70
     1
102
RTVSPropertyOp42
 70
     1
102
RTVSPropertyOp43
 70
     1
102
RTVSPropertyOp44
 70
     1
102
RTVSPropertyOp45
 70
     1
102
RTVSPropertyOp46
 70
     1
102
RTVSPropertyOp47
 70
     1
102
RTVSPropertyOp48
 70
     1
102
RTVSPropertyOp49
 70
     1
102
RTVSPropertyOp50
 70
     1
102
RTVSPropertyOp51
 70
     0
102
RTVSPropertyOp52
 70
     0
102
RTVSPropertyOp53
 70
     1
102
RTVSPropertyOp54
 70
     1
102
RTVSPropertyOp55
 70
     1
102
RTVSPropertyOp56
 70
     1
102
RTVSPropertyOp57
 70
     1
102
RTVSPropertyOp58
 70
     1
102
RTVSPropertyOp59
 70
     1
102
RTVSPropertyOp60
 70
     1
102
RTVSPropertyOp61
 70
     1
102
RTVSPropertyOp62
 70
     1
  0
XRECORD
  5
4F9F
102
{ACAD_REACTORS
330
4F9E
102
}
330
4F9E
100
AcDbXrecord
280
     1
102
RTVSPost2010Prop28
280
     0
102
RTVSPost2010PropOp28
 70
     1
102
RTVSPost2010Prop29
280
     1
102
RTVSPost2010PropOp29
 70
     1
102
RTVSPost2010Prop30
280
     1
102
RTVSPost2010PropOp30
 70
     1
102
RTVSPost2010Prop31
280
     0
102
RTVSPost2010PropOp31
 70
     1
102
RTVSPost2010Prop32
280
     0
102
RTVSPost2010PropOp32
 70
     1
102
RTVSPost2010Prop33
280
     0
102
RTVSPost2010PropOp33
 70
     1
102
RTVSPost2010Prop34
280
     0
102
RTVSPost2010PropOp34
 70
     1
102
RTVSPost2010Prop35
280
     0
102
RTVSPost2010PropOp35
 70
     1
102
RTVSPost2010Prop36
280
     0
102
RTVSPost2010PropOp36
 70
     1
102
RTVSPost2010Prop37
 90
       50
102
RTVSPost2010PropOp37
 70
     1
102
RTVSPost2010Prop38
140
0.0
102
RTVSPost2010PropOp38
 70
     1
102
RTVSPost2010Prop39
140
1.0
102
RTVSPost2010PropOp39
 70
     1
102
RTVSPost2010Prop40
 90
        0
102
RTVSPost2010PropOp40
 70
     1
102
RTVSPost2010Prop41ColorIndex
 90
       18
102
RTVSPost2010Prop41ColorRGB
 90
        0
102
RTVSPost2010PropOp41
 70
     1
102
RTVSPost2010Prop42
 90
       50
102
RTVSPost2010PropOp42
 70
     1
102
RTVSPost2010Prop43
 90
        3
102
RTVSPost2010PropOp43
 70
     1
102
RTVSPost2010Prop44ColorIndex
 90
        5
102
RTVSPost2010Prop44ColorRGB
 90
      255
102
RTVSPost2010PropOp44
 70
     1
102
RTVSPost2010Prop45
280
     0
102
RTVSPost2010PropOp45
 70
     1
102
RTVSPost2010Prop46
 90
       50
102
RTVSPost2010PropOp46
 70
     1
102
RTVSPost2010Prop47
 90
       50
102
RTVSPost2010PropOp47
 70
     1
102
RTVSPost2010Prop48
 90
       50
102
RTVSPost2010PropOp48
 70
     1
102
RTVSPost2010Prop49
280
     0
102
RTVSPost2010PropOp49
 70
     1
102
RTVSPost2010Prop50
 90
       50
102
RTVSPost2010PropOp50
 70
     1
102
RTVSPost2010Prop51ColorIndex
 90
      256
102
RTVSPost2010Prop51ColorRGB
 90
-16777216
102
RTVSPost2010PropOp51
 70
     0
102
RTVSPost2010Prop52
140
1.0
102
RTVSPost2010PropOp52
 70
     0
102
RTVSPost2010Prop53
 90
        2
102
RTVSPost2010PropOp53
 70
     1
102
RTVSPost2010Prop54
  1
strokes_ogs.tif
102
RTVSPost2010PropOp54
 70
     1
102
RTVSPost2010Prop55
280
     0
102
RTVSPost2010PropOp55
 70
     1
102
RTVSPost2010Prop56
140
1.0
102
RTVSPost2010PropOp56
 70
     1
102
RTVSPost2010Prop57
140
1.0
102
RTVSPost2010PropOp57
 70
     1
102
RTVSPropertyOp0
 70
     1
102
RTVSPropertyOp1
 70
     1
102
RTVSPropertyOp2
 70
     1
102
RTVSPropertyOp3
 70
     1
102
RTVSPropertyOp4
 70
     1
102
RTVSPropertyOp5
 70
     1
102
RTVSPropertyOp6
 70
     1
102
RTVSPropertyOp7
 70
     1
102
RTVSPropertyOp8
 70
     1
102
RTVSPropertyOp9
 70
     1
102
RTVSPropertyOp10
 70
     1
102
RTVSPropertyOp11
 70
     1
102
RTVSPropertyOp12
 70
     1
102
RTVSPropertyOp13
 70
     1
102
RTVSPropertyOp14
 70
     1
102
RTVSPropertyOp15
 70
     1
102
RTVSPropertyOp16
 70
     1
102
RTVSPropertyOp17
 70
     1
102
RTVSPropertyOp18
 70
     1
102
RTVSPropertyOp19
 70
     1
102
RTVSPropertyOp20
 70
     1
102
RTVSPropertyOp21
 70
     1
102
RTVSPropertyOp22
 70
     1
102
RTVSPropertyOp23
 70
     1
102
RTVSPropertyOp24
 70
     1
102
RTVSPropertyOp25
 70
     1
102
RTVSPropertyOp26
 70
     1
102
RTVSPropertyOp27
 70
     1
102
RTVSPropertyOp28
 70
     1
102
RTVSPropertyOp29
 70
     1
102
RTVSPropertyOp30
 70
     1
102
RTVSPropertyOp31
 70
     1
102
RTVSPropertyOp32
 70
     1
102
RTVSPropertyOp33
 70
     1
102
RTVSPropertyOp34
 70
     1
102
RTVSPropertyOp35
 70
     1
102
RTVSPropertyOp36
 70
     1
102
RTVSPropertyOp37
 70
     1
102
RTVSPropertyOp38
 70
     1
102
RTVSPropertyOp39
 70
     1
102
RTVSPropertyOp40
 70
     1
102
RTVSPropertyOp41
 70
     1
102
RTVSPropertyOp42
 70
     1
102
RTVSPropertyOp43
 70
     1
102
RTVSPropertyOp44
 70
     1
102
RTVSPropertyOp45
 70
     1
102
RTVSPropertyOp46
 70
     1
102
RTVSPropertyOp47
 70
     1
102
RTVSPropertyOp48
 70
     1
102
RTVSPropertyOp49
 70
     1
102
RTVSPropertyOp50
 70
     1
102
RTVSPropertyOp51
 70
     0
102
RTVSPropertyOp52
 70
     0
102
RTVSPropertyOp53
 70
     1
102
RTVSPropertyOp54
 70
     1
102
RTVSPropertyOp55
 70
     1
102
RTVSPropertyOp56
 70
     1
102
RTVSPropertyOp57
 70
     1
102
RTVSPropertyOp58
 70
     1
102
RTVSPropertyOp59
 70
     1
102
RTVSPropertyOp60
 70
     1
102
RTVSPropertyOp61
 70
     1
102
RTVSPropertyOp62
 70
     1
  0
XRECORD
  5
4F99
102
{ACAD_REACTORS
330
4F98
102
}
330
4F98
100
AcDbXrecord
280
     1
102
RTVSPost2010Prop28
280
     0
102
RTVSPost2010PropOp28
 70
     1
102
RTVSPost2010Prop29
280
     1
102
RTVSPost2010PropOp29
 70
     1
102
RTVSPost2010Prop30
280
     1
102
RTVSPost2010PropOp30
 70
     1
102
RTVSPost2010Prop31
280
     0
102
RTVSPost2010PropOp31
 70
     1
102
RTVSPost2010Prop32
280
     0
102
RTVSPost2010PropOp32
 70
     1
102
RTVSPost2010Prop33
280
     0
102
RTVSPost2010PropOp33
 70
     1
102
RTVSPost2010Prop34
280
     0
102
RTVSPost2010PropOp34
 70
     1
102
RTVSPost2010Prop35
280
     0
102
RTVSPost2010PropOp35
 70
     1
102
RTVSPost2010Prop36
280
     0
102
RTVSPost2010PropOp36
 70
     1
102
RTVSPost2010Prop37
 90
       50
102
RTVSPost2010PropOp37
 70
     1
102
RTVSPost2010Prop38
140
0.0
102
RTVSPost2010PropOp38
 70
     1
102
RTVSPost2010Prop39
140
1.0
102
RTVSPost2010PropOp39
 70
     1
102
RTVSPost2010Prop40
 90
        0
102
RTVSPost2010PropOp40
 70
     1
102
RTVSPost2010Prop41ColorIndex
 90
       18
102
RTVSPost2010Prop41ColorRGB
 90
        0
102
RTVSPost2010PropOp41
 70
     1
102
RTVSPost2010Prop42
 90
       50
102
RTVSPost2010PropOp42
 70
     1
102
RTVSPost2010Prop43
 90
        3
102
RTVSPost2010PropOp43
 70
     1
102
RTVSPost2010Prop44ColorIndex
 90
        5
102
RTVSPost2010Prop44ColorRGB
 90
      255
102
RTVSPost2010PropOp44
 70
     1
102
RTVSPost2010Prop45
280
     0
102
RTVSPost2010PropOp45
 70
     1
102
RTVSPost2010Prop46
 90
       50
102
RTVSPost2010PropOp46
 70
     1
102
RTVSPost2010Prop47
 90
       50
102
RTVSPost2010PropOp47
 70
     1
102
RTVSPost2010Prop48
 90
       50
102
RTVSPost2010PropOp48
 70
     1
102
RTVSPost2010Prop49
280
     0
102
RTVSPost2010PropOp49
 70
     1
102
RTVSPost2010Prop50
 90
       50
102
RTVSPost2010PropOp50
 70
     1
102
RTVSPost2010Prop51ColorIndex
 90
      256
102
RTVSPost2010Prop51ColorRGB
 90
-16777216
102
RTVSPost2010PropOp51
 70
     0
102
RTVSPost2010Prop52
140
1.0
102
RTVSPost2010PropOp52
 70
     0
102
RTVSPost2010Prop53
 90
        2
102
RTVSPost2010PropOp53
 70
     1
102
RTVSPost2010Prop54
  1
strokes_ogs.tif
102
RTVSPost2010PropOp54
 70
     1
102
RTVSPost2010Prop55
280
     0
102
RTVSPost2010PropOp55
 70
     1
102
RTVSPost2010Prop56
140
1.0
102
RTVSPost2010PropOp56
 70
     1
102
RTVSPost2010Prop57
140
1.0
102
RTVSPost2010PropOp57
 70
     1
102
RTVSPropertyOp0
 70
     1
102
RTVSPropertyOp1
 70
     1
102
RTVSPropertyOp2
 70
     1
102
RTVSPropertyOp3
 70
     1
102
RTVSPropertyOp4
 70
     1
102
RTVSPropertyOp5
 70
     1
102
RTVSPropertyOp6
 70
     1
102
RTVSPropertyOp7
 70
     1
102
RTVSPropertyOp8
 70
     1
102
RTVSPropertyOp9
 70
     1
102
RTVSPropertyOp10
 70
     1
102
RTVSPropertyOp11
 70
     1
102
RTVSPropertyOp12
 70
     1
102
RTVSPropertyOp13
 70
     1
102
RTVSPropertyOp14
 70
     1
102
RTVSPropertyOp15
 70
     1
102
RTVSPropertyOp16
 70
     1
102
RTVSPropertyOp17
 70
     1
102
RTVSPropertyOp18
 70
     1
102
RTVSPropertyOp19
 70
     1
102
RTVSPropertyOp20
 70
     1
102
RTVSPropertyOp21
 70
     1
102
RTVSPropertyOp22
 70
     1
102
RTVSPropertyOp23
 70
     1
102
RTVSPropertyOp24
 70
     1
102
RTVSPropertyOp25
 70
     1
102
RTVSPropertyOp26
 70
     1
102
RTVSPropertyOp27
 70
     1
102
RTVSPropertyOp28
 70
     1
102
RTVSPropertyOp29
 70
     1
102
RTVSPropertyOp30
 70
     1
102
RTVSPropertyOp31
 70
     1
102
RTVSPropertyOp32
 70
     1
102
RTVSPropertyOp33
 70
     1
102
RTVSPropertyOp34
 70
     1
102
RTVSPropertyOp35
 70
     1
102
RTVSPropertyOp36
 70
     1
102
RTVSPropertyOp37
 70
     1
102
RTVSPropertyOp38
 70
     1
102
RTVSPropertyOp39
 70
     1
102
RTVSPropertyOp40
 70
     1
102
RTVSPropertyOp41
 70
     1
102
RTVSPropertyOp42
 70
     1
102
RTVSPropertyOp43
 70
     1
102
RTVSPropertyOp44
 70
     1
102
RTVSPropertyOp45
 70
     1
102
RTVSPropertyOp46
 70
     1
102
RTVSPropertyOp47
 70
     1
102
RTVSPropertyOp48
 70
     1
102
RTVSPropertyOp49
 70
     1
102
RTVSPropertyOp50
 70
     1
102
RTVSPropertyOp51
 70
     0
102
RTVSPropertyOp52
 70
     0
102
RTVSPropertyOp53
 70
     1
102
RTVSPropertyOp54
 70
     1
102
RTVSPropertyOp55
 70
     1
102
RTVSPropertyOp56
 70
     1
102
RTVSPropertyOp57
 70
     1
102
RTVSPropertyOp58
 70
     1
102
RTVSPropertyOp59
 70
     1
102
RTVSPropertyOp60
 70
     1
102
RTVSPropertyOp61
 70
     1
102
RTVSPropertyOp62
 70
     1
  0
XRECORD
  5
4F9B
102
{ACAD_REACTORS
330
4F9A
102
}
330
4F9A
100
AcDbXrecord
280
     1
102
RTVSPost2010Prop28
280
     0
102
RTVSPost2010PropOp28
 70
     1
102
RTVSPost2010Prop29
280
     1
102
RTVSPost2010PropOp29
 70
     1
102
RTVSPost2010Prop30
280
     1
102
RTVSPost2010PropOp30
 70
     1
102
RTVSPost2010Prop31
280
     0
102
RTVSPost2010PropOp31
 70
     1
102
RTVSPost2010Prop32
280
     0
102
RTVSPost2010PropOp32
 70
     1
102
RTVSPost2010Prop33
280
     0
102
RTVSPost2010PropOp33
 70
     1
102
RTVSPost2010Prop34
280
     0
102
RTVSPost2010PropOp34
 70
     1
102
RTVSPost2010Prop35
280
     0
102
RTVSPost2010PropOp35
 70
     1
102
RTVSPost2010Prop36
280
     0
102
RTVSPost2010PropOp36
 70
     1
102
RTVSPost2010Prop37
 90
       50
102
RTVSPost2010PropOp37
 70
     1
102
RTVSPost2010Prop38
140
0.0
102
RTVSPost2010PropOp38
 70
     1
102
RTVSPost2010Prop39
140
1.0
102
RTVSPost2010PropOp39
 70
     1
102
RTVSPost2010Prop40
 90
        0
102
RTVSPost2010PropOp40
 70
     1
102
RTVSPost2010Prop41ColorIndex
 90
       18
102
RTVSPost2010Prop41ColorRGB
 90
        0
102
RTVSPost2010PropOp41
 70
     1
102
RTVSPost2010Prop42
 90
       50
102
RTVSPost2010PropOp42
 70
     1
102
RTVSPost2010Prop43
 90
        3
102
RTVSPost2010PropOp43
 70
     1
102
RTVSPost2010Prop44ColorIndex
 90
        5
102
RTVSPost2010Prop44ColorRGB
 90
      255
102
RTVSPost2010PropOp44
 70
     1
102
RTVSPost2010Prop45
280
     0
102
RTVSPost2010PropOp45
 70
     1
102
RTVSPost2010Prop46
 90
       50
102
RTVSPost2010PropOp46
 70
     1
102
RTVSPost2010Prop47
 90
       50
102
RTVSPost2010PropOp47
 70
     1
102
RTVSPost2010Prop48
 90
       50
102
RTVSPost2010PropOp48
 70
     1
102
RTVSPost2010Prop49
280
     0
102
RTVSPost2010PropOp49
 70
     1
102
RTVSPost2010Prop50
 90
       50
102
RTVSPost2010PropOp50
 70
     1
102
RTVSPost2010Prop51ColorIndex
 90
      256
102
RTVSPost2010Prop51ColorRGB
 90
-16777216
102
RTVSPost2010PropOp51
 70
     0
102
RTVSPost2010Prop52
140
1.0
102
RTVSPost2010PropOp52
 70
     0
102
RTVSPost2010Prop53
 90
        2
102
RTVSPost2010PropOp53
 70
     1
102
RTVSPost2010Prop54
  1
strokes_ogs.tif
102
RTVSPost2010PropOp54
 70
     1
102
RTVSPost2010Prop55
280
     0
102
RTVSPost2010PropOp55
 70
     1
102
RTVSPost2010Prop56
140
1.0
102
RTVSPost2010PropOp56
 70
     1
102
RTVSPost2010Prop57
140
1.0
102
RTVSPost2010PropOp57
 70
     1
102
RTVSPropertyOp0
 70
     1
102
RTVSPropertyOp1
 70
     1
102
RTVSPropertyOp2
 70
     1
102
RTVSPropertyOp3
 70
     1
102
RTVSPropertyOp4
 70
     1
102
RTVSPropertyOp5
 70
     1
102
RTVSPropertyOp6
 70
     1
102
RTVSPropertyOp7
 70
     1
102
RTVSPropertyOp8
 70
     1
102
RTVSPropertyOp9
 70
     1
102
RTVSPropertyOp10
 70
     1
102
RTVSPropertyOp11
 70
     1
102
RTVSPropertyOp12
 70
     1
102
RTVSPropertyOp13
 70
     1
102
RTVSPropertyOp14
 70
     1
102
RTVSPropertyOp15
 70
     1
102
RTVSPropertyOp16
 70
     1
102
RTVSPropertyOp17
 70
     1
102
RTVSPropertyOp18
 70
     1
102
RTVSPropertyOp19
 70
     1
102
RTVSPropertyOp20
 70
     1
102
RTVSPropertyOp21
 70
     1
102
RTVSPropertyOp22
 70
     1
102
RTVSPropertyOp23
 70
     1
102
RTVSPropertyOp24
 70
     1
102
RTVSPropertyOp25
 70
     1
102
RTVSPropertyOp26
 70
     1
102
RTVSPropertyOp27
 70
     1
102
RTVSPropertyOp28
 70
     1
102
RTVSPropertyOp29
 70
     1
102
RTVSPropertyOp30
 70
     1
102
RTVSPropertyOp31
 70
     1
102
RTVSPropertyOp32
 70
     1
102
RTVSPropertyOp33
 70
     1
102
RTVSPropertyOp34
 70
     1
102
RTVSPropertyOp35
 70
     1
102
RTVSPropertyOp36
 70
     1
102
RTVSPropertyOp37
 70
     1
102
RTVSPropertyOp38
 70
     1
102
RTVSPropertyOp39
 70
     1
102
RTVSPropertyOp40
 70
     1
102
RTVSPropertyOp41
 70
     1
102
RTVSPropertyOp42
 70
     1
102
RTVSPropertyOp43
 70
     1
102
RTVSPropertyOp44
 70
     1
102
RTVSPropertyOp45
 70
     1
102
RTVSPropertyOp46
 70
     1
102
RTVSPropertyOp47
 70
     1
102
RTVSPropertyOp48
 70
     1
102
RTVSPropertyOp49
 70
     1
102
RTVSPropertyOp50
 70
     1
102
RTVSPropertyOp51
 70
     0
102
RTVSPropertyOp52
 70
     0
102
RTVSPropertyOp53
 70
     1
102
RTVSPropertyOp54
 70
     1
102
RTVSPropertyOp55
 70
     1
102
RTVSPropertyOp56
 70
     1
102
RTVSPropertyOp57
 70
     1
102
RTVSPropertyOp58
 70
     1
102
RTVSPropertyOp59
 70
     1
102
RTVSPropertyOp60
 70
     1
102
RTVSPropertyOp61
 70
     1
102
RTVSPropertyOp62
 70
     1
  0
XRECORD
  5
4F91
102
{ACAD_REACTORS
330
4F90
102
}
330
4F90
100
AcDbXrecord
280
     1
102
RTVSPost2010Prop28
280
     0
102
RTVSPost2010PropOp28
 70
     1
102
RTVSPost2010Prop29
280
     1
102
RTVSPost2010PropOp29
 70
     1
102
RTVSPost2010Prop30
280
     1
102
RTVSPost2010PropOp30
 70
     1
102
RTVSPost2010Prop31
280
     0
102
RTVSPost2010PropOp31
 70
     1
102
RTVSPost2010Prop32
280
     0
102
RTVSPost2010PropOp32
 70
     1
102
RTVSPost2010Prop33
280
     0
102
RTVSPost2010PropOp33
 70
     1
102
RTVSPost2010Prop34
280
     0
102
RTVSPost2010PropOp34
 70
     1
102
RTVSPost2010Prop35
280
     0
102
RTVSPost2010PropOp35
 70
     1
102
RTVSPost2010Prop36
280
     0
102
RTVSPost2010PropOp36
 70
     1
102
RTVSPost2010Prop37
 90
       50
102
RTVSPost2010PropOp37
 70
     1
102
RTVSPost2010Prop38
140
0.0
102
RTVSPost2010PropOp38
 70
     1
102
RTVSPost2010Prop39
140
1.0
102
RTVSPost2010PropOp39
 70
     1
102
RTVSPost2010Prop40
 90
        0
102
RTVSPost2010PropOp40
 70
     1
102
RTVSPost2010Prop41ColorIndex
 90
       18
102
RTVSPost2010Prop41ColorRGB
 90
        0
102
RTVSPost2010PropOp41
 70
     1
102
RTVSPost2010Prop42
 90
       50
102
RTVSPost2010PropOp42
 70
     1
102
RTVSPost2010Prop43
 90
        3
102
RTVSPost2010PropOp43
 70
     1
102
RTVSPost2010Prop44ColorIndex
 90
        5
102
RTVSPost2010Prop44ColorRGB
 90
      255
102
RTVSPost2010PropOp44
 70
     1
102
RTVSPost2010Prop45
280
     0
102
RTVSPost2010PropOp45
 70
     1
102
RTVSPost2010Prop46
 90
       50
102
RTVSPost2010PropOp46
 70
     1
102
RTVSPost2010Prop47
 90
       50
102
RTVSPost2010PropOp47
 70
     1
102
RTVSPost2010Prop48
 90
       50
102
RTVSPost2010PropOp48
 70
     1
102
RTVSPost2010Prop49
280
     0
102
RTVSPost2010PropOp49
 70
     1
102
RTVSPost2010Prop50
 90
       50
102
RTVSPost2010PropOp50
 70
     1
102
RTVSPost2010Prop51ColorIndex
 90
      256
102
RTVSPost2010Prop51ColorRGB
 90
-16777216
102
RTVSPost2010PropOp51
 70
     0
102
RTVSPost2010Prop52
140
1.0
102
RTVSPost2010PropOp52
 70
     0
102
RTVSPost2010Prop53
 90
        2
102
RTVSPost2010PropOp53
 70
     1
102
RTVSPost2010Prop54
  1
strokes_ogs.tif
102
RTVSPost2010PropOp54
 70
     1
102
RTVSPost2010Prop55
280
     0
102
RTVSPost2010PropOp55
 70
     1
102
RTVSPost2010Prop56
140
1.0
102
RTVSPost2010PropOp56
 70
     1
102
RTVSPost2010Prop57
140
1.0
102
RTVSPost2010PropOp57
 70
     1
102
RTVSPropertyOp0
 70
     1
102
RTVSPropertyOp1
 70
     1
102
RTVSPropertyOp2
 70
     1
102
RTVSPropertyOp3
 70
     1
102
RTVSPropertyOp4
 70
     1
102
RTVSPropertyOp5
 70
     1
102
RTVSPropertyOp6
 70
     1
102
RTVSPropertyOp7
 70
     1
102
RTVSPropertyOp8
 70
     1
102
RTVSPropertyOp9
 70
     1
102
RTVSPropertyOp10
 70
     1
102
RTVSPropertyOp11
 70
     1
102
RTVSPropertyOp12
 70
     1
102
RTVSPropertyOp13
 70
     1
102
RTVSPropertyOp14
 70
     1
102
RTVSPropertyOp15
 70
     1
102
RTVSPropertyOp16
 70
     1
102
RTVSPropertyOp17
 70
     1
102
RTVSPropertyOp18
 70
     1
102
RTVSPropertyOp19
 70
     1
102
RTVSPropertyOp20
 70
     1
102
RTVSPropertyOp21
 70
     1
102
RTVSPropertyOp22
 70
     1
102
RTVSPropertyOp23
 70
     1
102
RTVSPropertyOp24
 70
     1
102
RTVSPropertyOp25
 70
     1
102
RTVSPropertyOp26
 70
     1
102
RTVSPropertyOp27
 70
     1
102
RTVSPropertyOp28
 70
     1
102
RTVSPropertyOp29
 70
     1
102
RTVSPropertyOp30
 70
     1
102
RTVSPropertyOp31
 70
     1
102
RTVSPropertyOp32
 70
     1
102
RTVSPropertyOp33
 70
     1
102
RTVSPropertyOp34
 70
     1
102
RTVSPropertyOp35
 70
     1
102
RTVSPropertyOp36
 70
     1
102
RTVSPropertyOp37
 70
     1
102
RTVSPropertyOp38
 70
     1
102
RTVSPropertyOp39
 70
     1
102
RTVSPropertyOp40
 70
     1
102
RTVSPropertyOp41
 70
     1
102
RTVSPropertyOp42
 70
     1
102
RTVSPropertyOp43
 70
     1
102
RTVSPropertyOp44
 70
     1
102
RTVSPropertyOp45
 70
     1
102
RTVSPropertyOp46
 70
     1
102
RTVSPropertyOp47
 70
     1
102
RTVSPropertyOp48
 70
     1
102
RTVSPropertyOp49
 70
     1
102
RTVSPropertyOp50
 70
     1
102
RTVSPropertyOp51
 70
     0
102
RTVSPropertyOp52
 70
     0
102
RTVSPropertyOp53
 70
     1
102
RTVSPropertyOp54
 70
     1
102
RTVSPropertyOp55
 70
     1
102
RTVSPropertyOp56
 70
     1
102
RTVSPropertyOp57
 70
     1
102
RTVSPropertyOp58
 70
     1
102
RTVSPropertyOp59
 70
     1
102
RTVSPropertyOp60
 70
     1
102
RTVSPropertyOp61
 70
     1
102
RTVSPropertyOp62
 70
     1
  0
XRECORD
  5
4F85
102
{ACAD_REACTORS
330
4F84
102
}
330
4F84
100
AcDbXrecord
280
     1
102
RTVSPost2010Prop28
280
     0
102
RTVSPost2010PropOp28
 70
     1
102
RTVSPost2010Prop29
280
     1
102
RTVSPost2010PropOp29
 70
     1
102
RTVSPost2010Prop30
280
     1
102
RTVSPost2010PropOp30
 70
     1
102
RTVSPost2010Prop31
280
     0
102
RTVSPost2010PropOp31
 70
     1
102
RTVSPost2010Prop32
280
     0
102
RTVSPost2010PropOp32
 70
     1
102
RTVSPost2010Prop33
280
     0
102
RTVSPost2010PropOp33
 70
     1
102
RTVSPost2010Prop34
280
     0
102
RTVSPost2010PropOp34
 70
     1
102
RTVSPost2010Prop35
280
     0
102
RTVSPost2010PropOp35
 70
     1
102
RTVSPost2010Prop36
280
     0
102
RTVSPost2010PropOp36
 70
     1
102
RTVSPost2010Prop37
 90
       50
102
RTVSPost2010PropOp37
 70
     1
102
RTVSPost2010Prop38
140
0.0
102
RTVSPost2010PropOp38
 70
     1
102
RTVSPost2010Prop39
140
1.0
102
RTVSPost2010PropOp39
 70
     1
102
RTVSPost2010Prop40
 90
        0
102
RTVSPost2010PropOp40
 70
     1
102
RTVSPost2010Prop41ColorIndex
 90
       18
102
RTVSPost2010Prop41ColorRGB
 90
        0
102
RTVSPost2010PropOp41
 70
     1
102
RTVSPost2010Prop42
 90
       50
102
RTVSPost2010PropOp42
 70
     1
102
RTVSPost2010Prop43
 90
        3
102
RTVSPost2010PropOp43
 70
     1
102
RTVSPost2010Prop44ColorIndex
 90
        5
102
RTVSPost2010Prop44ColorRGB
 90
      255
102
RTVSPost2010PropOp44
 70
     1
102
RTVSPost2010Prop45
280
     0
102
RTVSPost2010PropOp45
 70
     1
102
RTVSPost2010Prop46
 90
       50
102
RTVSPost2010PropOp46
 70
     1
102
RTVSPost2010Prop47
 90
       50
102
RTVSPost2010PropOp47
 70
     1
102
RTVSPost2010Prop48
 90
       50
102
RTVSPost2010PropOp48
 70
     1
102
RTVSPost2010Prop49
280
     0
102
RTVSPost2010PropOp49
 70
     1
102
RTVSPost2010Prop50
 90
       50
102
RTVSPost2010PropOp50
 70
     1
102
RTVSPost2010Prop51ColorIndex
 90
      256
102
RTVSPost2010Prop51ColorRGB
 90
-16777216
102
RTVSPost2010PropOp51
 70
     0
102
RTVSPost2010Prop52
140
1.0
102
RTVSPost2010PropOp52
 70
     0
102
RTVSPost2010Prop53
 90
        2
102
RTVSPost2010PropOp53
 70
     1
102
RTVSPost2010Prop54
  1
strokes_ogs.tif
102
RTVSPost2010PropOp54
 70
     1
102
RTVSPost2010Prop55
280
     0
102
RTVSPost2010PropOp55
 70
     1
102
RTVSPost2010Prop56
140
1.0
102
RTVSPost2010PropOp56
 70
     1
102
RTVSPost2010Prop57
140
1.0
102
RTVSPost2010PropOp57
 70
     1
102
RTVSPropertyOp0
 70
     1
102
RTVSPropertyOp1
 70
     1
102
RTVSPropertyOp2
 70
     1
102
RTVSPropertyOp3
 70
     1
102
RTVSPropertyOp4
 70
     1
102
RTVSPropertyOp5
 70
     1
102
RTVSPropertyOp6
 70
     1
102
RTVSPropertyOp7
 70
     1
102
RTVSPropertyOp8
 70
     1
102
RTVSPropertyOp9
 70
     1
102
RTVSPropertyOp10
 70
     1
102
RTVSPropertyOp11
 70
     1
102
RTVSPropertyOp12
 70
     1
102
RTVSPropertyOp13
 70
     1
102
RTVSPropertyOp14
 70
     1
102
RTVSPropertyOp15
 70
     1
102
RTVSPropertyOp16
 70
     1
102
RTVSPropertyOp17
 70
     1
102
RTVSPropertyOp18
 70
     1
102
RTVSPropertyOp19
 70
     1
102
RTVSPropertyOp20
 70
     1
102
RTVSPropertyOp21
 70
     1
102
RTVSPropertyOp22
 70
     1
102
RTVSPropertyOp23
 70
     1
102
RTVSPropertyOp24
 70
     1
102
RTVSPropertyOp25
 70
     1
102
RTVSPropertyOp26
 70
     1
102
RTVSPropertyOp27
 70
     1
102
RTVSPropertyOp28
 70
     1
102
RTVSPropertyOp29
 70
     1
102
RTVSPropertyOp30
 70
     1
102
RTVSPropertyOp31
 70
     1
102
RTVSPropertyOp32
 70
     1
102
RTVSPropertyOp33
 70
     1
102
RTVSPropertyOp34
 70
     1
102
RTVSPropertyOp35
 70
     1
102
RTVSPropertyOp36
 70
     1
102
RTVSPropertyOp37
 70
     1
102
RTVSPropertyOp38
 70
     1
102
RTVSPropertyOp39
 70
     1
102
RTVSPropertyOp40
 70
     1
102
RTVSPropertyOp41
 70
     1
102
RTVSPropertyOp42
 70
     1
102
RTVSPropertyOp43
 70
     1
102
RTVSPropertyOp44
 70
     1
102
RTVSPropertyOp45
 70
     1
102
RTVSPropertyOp46
 70
     1
102
RTVSPropertyOp47
 70
     1
102
RTVSPropertyOp48
 70
     1
102
RTVSPropertyOp49
 70
     1
102
RTVSPropertyOp50
 70
     1
102
RTVSPropertyOp51
 70
     0
102
RTVSPropertyOp52
 70
     0
102
RTVSPropertyOp53
 70
     1
102
RTVSPropertyOp54
 70
     1
102
RTVSPropertyOp55
 70
     1
102
RTVSPropertyOp56
 70
     1
102
RTVSPropertyOp57
 70
     1
102
RTVSPropertyOp58
 70
     1
102
RTVSPropertyOp59
 70
     1
102
RTVSPropertyOp60
 70
     1
102
RTVSPropertyOp61
 70
     1
102
RTVSPropertyOp62
 70
     1
  0
XRECORD
  5
4F9D
102
{ACAD_REACTORS
330
4F9C
102
}
330
4F9C
100
AcDbXrecord
280
     1
102
RTVSPost2010Prop28
280
     0
102
RTVSPost2010PropOp28
 70
     1
102
RTVSPost2010Prop29
280
     1
102
RTVSPost2010PropOp29
 70
     1
102
RTVSPost2010Prop30
280
     1
102
RTVSPost2010PropOp30
 70
     1
102
RTVSPost2010Prop31
280
     0
102
RTVSPost2010PropOp31
 70
     1
102
RTVSPost2010Prop32
280
     0
102
RTVSPost2010PropOp32
 70
     1
102
RTVSPost2010Prop33
280
     0
102
RTVSPost2010PropOp33
 70
     1
102
RTVSPost2010Prop34
280
     0
102
RTVSPost2010PropOp34
 70
     1
102
RTVSPost2010Prop35
280
     0
102
RTVSPost2010PropOp35
 70
     1
102
RTVSPost2010Prop36
280
     0
102
RTVSPost2010PropOp36
 70
     1
102
RTVSPost2010Prop37
 90
       50
102
RTVSPost2010PropOp37
 70
     1
102
RTVSPost2010Prop38
140
0.0
102
RTVSPost2010PropOp38
 70
     1
102
RTVSPost2010Prop39
140
1.0
102
RTVSPost2010PropOp39
 70
     1
102
RTVSPost2010Prop40
 90
        0
102
RTVSPost2010PropOp40
 70
     1
102
RTVSPost2010Prop41ColorIndex
 90
       18
102
RTVSPost2010Prop41ColorRGB
 90
        0
102
RTVSPost2010PropOp41
 70
     1
102
RTVSPost2010Prop42
 90
       50
102
RTVSPost2010PropOp42
 70
     1
102
RTVSPost2010Prop43
 90
        3
102
RTVSPost2010PropOp43
 70
     1
102
RTVSPost2010Prop44ColorIndex
 90
        5
102
RTVSPost2010Prop44ColorRGB
 90
      255
102
RTVSPost2010PropOp44
 70
     1
102
RTVSPost2010Prop45
280
     0
102
RTVSPost2010PropOp45
 70
     1
102
RTVSPost2010Prop46
 90
       50
102
RTVSPost2010PropOp46
 70
     1
102
RTVSPost2010Prop47
 90
       50
102
RTVSPost2010PropOp47
 70
     1
102
RTVSPost2010Prop48
 90
       50
102
RTVSPost2010PropOp48
 70
     1
102
RTVSPost2010Prop49
280
     0
102
RTVSPost2010PropOp49
 70
     1
102
RTVSPost2010Prop50
 90
       50
102
RTVSPost2010PropOp50
 70
     1
102
RTVSPost2010Prop51ColorIndex
 90
      256
102
RTVSPost2010Prop51ColorRGB
 90
-16777216
102
RTVSPost2010PropOp51
 70
     0
102
RTVSPost2010Prop52
140
1.0
102
RTVSPost2010PropOp52
 70
     0
102
RTVSPost2010Prop53
 90
        2
102
RTVSPost2010PropOp53
 70
     1
102
RTVSPost2010Prop54
  1
strokes_ogs.tif
102
RTVSPost2010PropOp54
 70
     1
102
RTVSPost2010Prop55
280
     0
102
RTVSPost2010PropOp55
 70
     1
102
RTVSPost2010Prop56
140
1.0
102
RTVSPost2010PropOp56
 70
     1
102
RTVSPost2010Prop57
140
1.0
102
RTVSPost2010PropOp57
 70
     1
102
RTVSPropertyOp0
 70
     1
102
RTVSPropertyOp1
 70
     1
102
RTVSPropertyOp2
 70
     1
102
RTVSPropertyOp3
 70
     1
102
RTVSPropertyOp4
 70
     1
102
RTVSPropertyOp5
 70
     1
102
RTVSPropertyOp6
 70
     1
102
RTVSPropertyOp7
 70
     1
102
RTVSPropertyOp8
 70
     1
102
RTVSPropertyOp9
 70
     1
102
RTVSPropertyOp10
 70
     1
102
RTVSPropertyOp11
 70
     1
102
RTVSPropertyOp12
 70
     1
102
RTVSPropertyOp13
 70
     1
102
RTVSPropertyOp14
 70
     1
102
RTVSPropertyOp15
 70
     1
102
RTVSPropertyOp16
 70
     1
102
RTVSPropertyOp17
 70
     1
102
RTVSPropertyOp18
 70
     1
102
RTVSPropertyOp19
 70
     1
102
RTVSPropertyOp20
 70
     1
102
RTVSPropertyOp21
 70
     1
102
RTVSPropertyOp22
 70
     1
102
RTVSPropertyOp23
 70
     1
102
RTVSPropertyOp24
 70
     1
102
RTVSPropertyOp25
 70
     1
102
RTVSPropertyOp26
 70
     1
102
RTVSPropertyOp27
 70
     1
102
RTVSPropertyOp28
 70
     1
102
RTVSPropertyOp29
 70
     1
102
RTVSPropertyOp30
 70
     1
102
RTVSPropertyOp31
 70
     1
102
RTVSPropertyOp32
 70
     1
102
RTVSPropertyOp33
 70
     1
102
RTVSPropertyOp34
 70
     1
102
RTVSPropertyOp35
 70
     1
102
RTVSPropertyOp36
 70
     1
102
RTVSPropertyOp37
 70
     1
102
RTVSPropertyOp38
 70
     1
102
RTVSPropertyOp39
 70
     1
102
RTVSPropertyOp40
 70
     1
102
RTVSPropertyOp41
 70
     1
102
RTVSPropertyOp42
 70
     1
102
RTVSPropertyOp43
 70
     1
102
RTVSPropertyOp44
 70
     1
102
RTVSPropertyOp45
 70
     1
102
RTVSPropertyOp46
 70
     1
102
RTVSPropertyOp47
 70
     1
102
RTVSPropertyOp48
 70
     1
102
RTVSPropertyOp49
 70
     1
102
RTVSPropertyOp50
 70
     1
102
RTVSPropertyOp51
 70
     0
102
RTVSPropertyOp52
 70
     0
102
RTVSPropertyOp53
 70
     1
102
RTVSPropertyOp54
 70
     1
102
RTVSPropertyOp55
 70
     1
102
RTVSPropertyOp56
 70
     1
102
RTVSPropertyOp57
 70
     1
102
RTVSPropertyOp58
 70
     1
102
RTVSPropertyOp59
 70
     1
102
RTVSPropertyOp60
 70
     1
102
RTVSPropertyOp61
 70
     1
102
RTVSPropertyOp62
 70
     1
  0
ENDSEC
  0
EOF
